โหลดหนัง Hdfile4you

 ลืมรหัสผ่าน
 ลงทะเบียน
ค้นหา
ดู: 790|ตอบกลับ: 1

(TV Series 2016) Mr. Robot (2016) Complete Season 2 (Finale: Episode 1-12) [1080p][เสียงอังกฤษ 5.1] [บรรยายไทย + อังกฤษ] [ซับไทยมาสเตอร์จาก iflix]

[คัดลอกลิงก์]

 
 ตำเเหน่ง: ผู้ดูแลระบบ

 มีนามว่า:admin 
สมาชิกคนที่:
เพศ: ชาย
กระทู้:3708 
โพสต์:4733
พลังน้ำใจ:100747 
เงิน:100916 
ความดี:100747 
เครดิต:105480
สิทธิ์อ่าน:200 
สมัครเมื่อ:2015-8-12 
ชมล่าสุด:2019-8-14 
ออนไลน์:2780 
สถานะใช้งาน:ออฟไลน์
เหรียญเกียรติยศ
ประดับยศนักโพสต์ยอดเยี่ยม ประดับยศนักแบ่งปันยอดเยี่ยม ประดับยศนักกิจกรรมยอดเยี่ยม ประดับยศนักเชิญชวนยอดเยี่ยม ประดับยศนักเขียนบทความยอดเยี่ยม ประดับยศนักออกแบบยอดเยี่ยม ประดับยศกิตติมศักดิ์ ประดับยศผู้ให้การสนับสนุน ประดับยศผู้ตั้งโพสต์ ประดับยศผู้ทรงคุณวุฒิ ประดับยศผู้สมัครสมาชิกใหม่ ประดับยศผู้ออนไลน์ต่อเนื่อง ประดับยศนักออนไลน์ยอดเยี่ยม


โพสต์ 2016-11-19 10:21:41 | ดู: 790| ตอบกลับ: 1
(TV Series 2016) Mr. Robot (2016) Complete Season 2 (Finale: Episode 1-12) [1080p][เสียงอังกฤษ 5.1] [บรรยายไทย + อังกฤษ] [ซับไทยมาสเตอร์จาก iflix]
w59MOx9.jpg
http://www.imdb.com/title/tt4158110/   X-Men: Apocalypse(2016) on IMDb

เอลเลียต โปรแกรมเมอร์หนุ่มผู้เกลียดการเข้าสังคม ผู้ทำงานเป็นวิศวกรความปลอดภัยด้านไซเบอร์ในช่วงกลาง วัน แต่ตอนกลางคืน เขาเป็นแฮคเกอร์ผู้คอยพิพากษาคนชั่ว หลังจากที่เขาถูกชักจูงเข้าไปร่วมกับองค์กรแฮคเกอร์ใ ต้ดินมือฉมัง โดยมีหน้าที่คือ การร่วมทำลายเหล่าบริษัทยักษ์ใหญ่ที่ควบคุมประเทศสหร ัฐอเมริกาไว้ในกำมือ โดยหนึ่งในนั้นคือบริษัทที่เขาทำงานอยู่ด้วย เอลเลียตจะตัดสินใจทำอย่างไร เมื่องานที่เขาทำ ขัดกับความเชื่อส่วนตัวของเขา ที่คิดว่าบริษัทยักษ์ใหญ่เหล่านี้กำลังกุมชีวิตผู้คน บนโลก และทำให้ชีวิตคนมากมายต้องพังทลายลงไปทุกวัน

General
Unique ID : 193410199404214636712213415194200828257 (0x9181730FB21D7DCF877B682A21A2E961)
Complete name : Mr.Robot.S02E12.1080p.WEB-DL.DD5.1.H.264.mkv
Format : Matroska
Format version : Version 4 / Version 2
File size : 1.86 GiB
Duration : 47 min 56 s
Overall bit rate : 5 546 kb/s
Movie name : Mr.Robot.S02E12.1080p.WEB-DL.DD5.1.H.264-jaideejung007
Encoded date : UTC 2016-09-23 07:20:07
Writing application : mkvmerge v9.4.2 ( So High ) 64bit
Writing library : libebml v1.3.4 + libmatroska v1.4.5
Cover : Yes
Attachments : cover.jpg

Video
ID : 1
Format : AVC
Format/Info : Advanced Video Codec
Format profile : [email protected]
Format settings, CABAC : Yes
Format settings, ReFrames : 4 frames
Codec ID : V_MPEG4/ISO/AVC
Duration : 47 min 55 s
Bit rate : 5 037 kb/s
Width : 1 920 pixels
Height : 1 080 pixels
Display aspect ratio : 16:9
Frame rate mode : Constant
Frame rate : 23.976 FPS
Color space : YUV
Chroma subsampling : 4:2:0
Bit depth : 8 bits
Scan type : Progressive
Bits/(Pixel*Frame) : 0.101
Stream size : 1.69 GiB (91%)
Title : Mr.Robot.S02E12.1080p.WEB-DL.DD5.1.H.264-jaideejung007
Language : English
Default : Yes
Forced : No
Color range : Limited
Color primaries : BT.709
Transfer characteristics : BT.709
Matrix coefficients : BT.709

Audio
ID : 2
Format : AC-3
Format/Info : Audio Coding 3
Mode extension : CM (complete main)
Format settings, Endianness : Big
Codec ID : A_AC3
Duration : 47 min 56 s
Bit rate mode : Constant
Bit rate : 384 kb/s
Channel(s) : 6 channels
Channel positions : Front: L C R, Side: L R, LFE
Sampling rate : 48.0 kHz
Frame rate : 31.250 FPS (1536 spf)
Compression mode : Lossy
Stream size : 132 MiB (7%)
Title : Mr.Robot.S02E12.1080p.WEB-DL.DD5.1.H.264-jaideejung007
Language : English
Default : Yes
Forced : No

Text #1
ID : 3
Format : VobSub
Codec ID : S_VOBSUB
Codec ID/Info : Picture based subtitle format used on DVDs
Duration : 47 min 49 s
Bit rate : 2 891 b/s
Count of elements : 611
Stream size : 1 013 KiB (0%)
Title : Thai 480p
Language : Thai
Default : No
Forced : No

Text #2
ID : 4
Format : VobSub
Codec ID : S_VOBSUB
Codec ID/Info : Picture based subtitle format used on DVDs
Duration : 47 min 49 s
Bit rate : 5 606 b/s
Count of elements : 611
Stream size : 1.92 MiB (0%)
Title : Thai 720p
Language : Thai
Default : No
Forced : No

Text #3
ID : 5
Format : VobSub
Codec ID : S_VOBSUB
Codec ID/Info : Picture based subtitle format used on DVDs
Duration : 47 min 49 s
Bit rate : 10.3 kb/s
Count of elements : 611
Stream size : 3.54 MiB (0%)
Title : Thai 1080p
Language : Thai
Default : Yes
Forced : Yes

Text #4
ID : 6
Format : VobSub
Codec ID : S_VOBSUB
Codec ID/Info : Picture based subtitle format used on DVDs
Duration : 47 min 49 s
Bit rate : 9 240 b/s
Count of elements : 611
Stream size : 3.16 MiB (0%)
Title : Thai 1080p Yellow
Language : Thai
Default : No
Forced : No

Text #5
ID : 7
Format : VobSub
Codec ID : S_VOBSUB
Codec ID/Info : Picture based subtitle format used on DVDs
Duration : 47 min 49 s
Bit rate : 10.3 kb/s
Count of elements : 611
Stream size : 3.54 MiB (0%)
Title : Thai 1080p OUT
Language : Thai
Default : No
Forced : No

Text #6
ID : 8
Format : PGS
Codec ID : S_HDMV/PGS
Codec ID/Info : Picture based subtitle format used on BDs/HD-DVDs
Duration : 47 min 49 s
Bit rate : 41.5 kb/s
Count of elements : 1222
Stream size : 14.2 MiB (1%)
Title : Thai PGS
Language : Thai
Default : No
Forced : No

Text #7
ID : 9
Format : PGS
Codec ID : S_HDMV/PGS
Codec ID/Info : Picture based subtitle format used on BDs/HD-DVDs
Duration : 47 min 49 s
Bit rate : 41.5 kb/s
Count of elements : 1222
Stream size : 14.2 MiB (1%)
Title : Thai PGS OUT
Language : Thai
Default : No
Forced : No

Text #8
ID : 10
Format : UTF-8
Codec ID : S_TEXT/UTF8
Codec ID/Info : UTF-8 Plain Text
Duration : 47 min 45 s
Bit rate : 58 b/s
Count of elements : 668
Stream size : 20.5 KiB (0%)
Title : CC
Language : English
Default : No
Forced : No

Text #9
ID : 11
Format : UTF-8
Codec ID : S_TEXT/UTF8
Codec ID/Info : UTF-8 Plain Text
Duration : 47 min 45 s
Bit rate : 71 b/s
Count of elements : 835
Stream size : 25.0 KiB (0%)
Title : CC (SDH)
Language : English
Default : No
Forced : No


ลิ๊งค์ไฟล์เสียโหลดไม่ได้ติดโดยตรงได้ที่ >>คลิก<<
http://hdfile4you.clubhd4you.net/

 
 ตำเเหน่ง: Senior

 มีนามว่า:iriszaa 
สมาชิกคนที่:1386 
เพศ: ชาย
กระทู้:
โพสต์:159
พลังน้ำใจ:59 
เงิน:259 
ความดี:59 
เครดิต:220
สิทธิ์อ่าน:30 
สมัครเมื่อ:2016-5-6 
ชมล่าสุด:2017-11-28 
ออนไลน์:45 
สถานะใช้งาน:ออฟไลน์
เหรียญเกียรติยศ
ประดับยศนักออนไลน์ยอดเยี่ยม ประดับยศผู้สมัครสมาชิกใหม่ ประดับยศผู้ออนไลน์ต่อเนื่อง


โพสต์ 2017-2-19 05:01:42
ขอบคุณมากๆ ครับ
ขออภัย! คุณไม่ได้รับสิทธิ์ในการดำเนินการในส่วนนี้ กรุณาเลือกอย่างใดอย่างหนึ่ง ลงชื่อเข้าใช้ | ลงทะเบียน

รายละเอียดเครดิต

ปิด

ประกาศจากทางเว็ป Hdfile4youก่อนหน้า /3 ต่อไป

cornfile.com

ประวัติการแบน|อุปกรณ์พกพา|ข้อความล้วน|โหลดหนัง หนังใหม่ เก่า เพลง โหลดฟรี ดูฟรี Hdfile4you

GMT+7, 2019-8-23 22:09 , Processed in 0.045634 second(s), 29 queries .

Powered by Discuz! X3.4 R20180101, Rev.59

© 2001-2017 Comsenz Inc.

ตอบกระทู้ ขึ้นไปด้านบน ไปที่หน้ารายการกระทู้