โหลดหนัง Hdfile4you

 ลืมรหัสผ่าน
 ลงทะเบียน
Loading...
ค้นหา
ดู: 1393|ตอบกลับ: 2

[MiniHD] White Lily (2016) : สายหนังอิโรติกไม่ควรพลาด [720p][Soundtrack บรรยายไทย]

[คัดลอกลิงก์]

 
 ตำเเหน่ง: ผู้ดูแลระบบ

 มีนามว่า:admin 
สมาชิกคนที่:
เพศ: ชาย
กระทู้:3708 
โพสต์:4733
พลังน้ำใจ:100747 
เงิน:100916 
ความดี:100747 
เครดิต:105480
สิทธิ์อ่าน:200 
สมัครเมื่อ:2015-8-12 
ชมล่าสุด:2019-8-14 
ออนไลน์:2780 
สถานะใช้งาน:ออฟไลน์
เหรียญเกียรติยศ
ประดับยศนักโพสต์ยอดเยี่ยม ประดับยศนักแบ่งปันยอดเยี่ยม ประดับยศนักกิจกรรมยอดเยี่ยม ประดับยศนักเชิญชวนยอดเยี่ยม ประดับยศนักเขียนบทความยอดเยี่ยม ประดับยศนักออกแบบยอดเยี่ยม ประดับยศกิตติมศักดิ์ ประดับยศผู้ให้การสนับสนุน ประดับยศผู้ตั้งโพสต์ ประดับยศผู้ทรงคุณวุฒิ ประดับยศผู้สมัครสมาชิกใหม่ ประดับยศผู้ออนไลน์ต่อเนื่อง ประดับยศนักออนไลน์ยอดเยี่ยม


โพสต์ 2019-2-9 18:23:53 | ดู: 1393| ตอบกลับ: 2
[MiniHD] White Lily (2016) : สายหนังอิโรติกไม่ควรพลาด [720p][Soundtrack บรรยายไทย]

200626hdoo9mz9gwkglh7g.jpg

https://www.imdb.com/title/tt5961906/  4.9/10161 votes
โทกิโกะศิลปินเซรามิกชื่อดังและสามีของเธอพบฮารุกะเป ็นวัยรุ่นหนีและพาเธอไปที่บ้านของพวกเขาที่โทกิโกะสอ นเรื่องเซรามิก เมื่อสามีของ Tokiko เสียชีวิต Haruka สัญญาว่าจะอยู่กับครูของเธอและทำทุกอย่างที่เธอขอ พวกเขาพัฒนาความสัมพันธ์แบบเลสเบี้ยน แต่โทกิโกะจมความเศร้าในแอลกอฮอล์และมีการเผชิญหน้าท างเพศที่ไม่มีความหมายอย่างจริงจังกับผู้ชายหลายคนขณ ะที่ฮารุกะได้ยินในห้องอื่น โทคิโกะในที่สุดก็เชิญซาโตรุนักเรียนหนุ่มที่สัญญาว่ าจะเป็นเด็กฝึกงานของเธอและเริ่มมีความสัมพันธ์ทางเพ ศกับเขาแม้ว่าเขาจะบอกเธอว่าเขามีแฟน สะโตะรุเริ่มให้ความสนใจกับฮารุกะผู้มีอายุเท่ากันแล ะจีบเธออย่างจริงจัง โทกิโกะจับพวกเขาและโกรธฮารุกะถึงชอบผู้ชายบังคับให้ พวกเขามีเซ็กซ์บนโต๊ะตรงหน้าเธอ Akane แฟนสาวของ Satoru ค้นพบและจับมีดครัวขนาดใหญ่ขู่ว่าจะฆ่าตัวตาย สะโตะรุกระโดดใส่เธอแล้วเธอก็ตัดเขาด้วยมีด จากนั้นเธอก็พุ่งไปที่ Tokiko ด้วยมีด แต่ Haruka กระโดดไปข้างหน้า Tokiko และถูกแทงที่ท้องในวันที่ในอนาคต Haruka ทำให้ Tokiko ประหลาดใจโดยกลับไปที่ศิลปของเธอซึ่งทั้งสองได้รักอี กครั้ง
White.Lily.2016White.Lily.2016.720p.BluRay.x264.mk v
Format : Matroska
Format version : Version 4
File size : 3.00 GiB
Duration : 1 h 20 min
Overall bit rate : 5 354 kb/s
Movie name : Jubowo @ WiKi
Encoded date : UTC 2019-01-16 12:31:20
Writing application : mkvmerge v26.0.0 ( In The Game ) 64-bit
Writing library : libebml v1.3.6 + libmatroska v1.4.9

Video
ID : 1
Format : AVC
Format/Info : Advanced Video Codec
Format profile : [email protected]
Format settings : CABAC / 9 Ref Frames
Format settings, CABAC : Yes
Format settings, ReFrames : 9 frames
Codec ID : V_MPEG4/ISO/AVC
Duration : 1 h 20 min
Bit rate : 4 904 kb/s
Width : 1 280 pixels
Height : 692 pixels
Display aspect ratio : 1.85:1
Frame rate mode : Constant
Frame rate : 23.976 (24000/1001) FPS
Color space : YUV
Chroma subsampling : 4:2:0
Bit depth : 8 bits
Scan type : Progressive
Bits/(Pixel*Frame) : 0.231
Stream size : 2.75 GiB (92%)
Writing library : x264 core 129 r2245+704+36 8e61944 tMod+MixAQ [[email protected]:2:0 X86_64]
Encoding settings : cabac=1 / ref=9 / deblock=1:-3:-3 / analyse=0x3:0x133 / me=umh / subme=11 / psy=1 / fade_compensate=0.00 / psy_rd=1.05:0.10 / mixed_ref=1 / me_range=32 / chroma_me=1 / trellis=2 / 8x8dct=1 / cqm=0 / deadzone=21,11 / fast_pskip=0 / chroma_qp_offset=-3 / threads=18 / lookahead_threads=3 / sliced_threads=0 / nr=0 / decimate=0 / interlaced=0 / bluray_compat=0 / constrained_intra=0 / fgo=0 / bframes=10 / b_pyramid=2 / b_adapt=2 / b_bias=0 / direct=3 / weightb=1 / open_gop=0 / weightp=2 / keyint=250 / keyint_min=23 / scenecut=40 / intra_refresh=0 / rc=2pass / mbtree=0 / bitrate=4904 / ratetol=1.0 / qcomp=0.70 / qpmin=0 / qpmax=69 / qpstep=4 / cplxblur=20.0 / qblur=0.5 / ip_ratio=1.40 / pb_ratio=1.30 / aq=1 / aq-strength=0.90 / aq-sensitivity=10.00 / aq-ifactor=1.00 / aq-pfactor=1.00 / aq-bfactor=1.00 / aq2=0
Language : Japanese
Default : Yes
Forced : No

Audio
ID : 2
Format : AC-3
Format/Info : Audio Coding 3
Commercial name : Dolby Digital
Codec ID : A_AC3
Duration : 1 h 20 min
Bit rate mode : Constant
Bit rate : 448 kb/s
Channel(s) : 6 channels
Channel layout : L R C LFE Ls Rs
Sampling rate : 48.0 kHz
Frame rate : 31.250 FPS (1536 SPF)
Bit depth : 16 bits
Compression mode : Lossy
Stream size : 257 MiB (8%)
Language : Japanese
Service kind : Complete Main
Default : Yes
Forced : No

Text #1
ID : 3
Format : UTF-8
Codec ID : S_TEXT/UTF8
Codec ID/Info : UTF-8 Plain Text
Duration : 1 h 19 min
Bit rate : 19 b/s
Count of elements : 606
Stream size : 11.5 KiB (0%)
Title : Simplified
Language : Chinese
Default : Yes
Forced : No

Text #2
ID : 4
Format : UTF-8
Codec ID : S_TEXT/UTF8
Codec ID/Info : UTF-8 Plain Text
Duration : 1 h 19 min
Bit rate : 19 b/s
Count of elements : 606
Stream size : 11.5 KiB (0%)
Title : Traditional
Language : Chinese
Default : No
Forced : No

Text #3
ID : 5
Format : ASS
Codec ID : S_TEXT/ASS
Codec ID/Info : Advanced Sub Station Alpha
Duration : 1 h 19 min
Bit rate : 74 b/s
Count of elements : 606
Compression mode : Lossless
Stream size : 43.0 KiB (0%)
Language : Thai
Default : No
Forced : No

Text #4
ID : 6
Format : ASS
Codec ID : S_TEXT/ASS
Codec ID/Info : Advanced Sub Station Alpha
Duration : 1 h 19 min
Bit rate : 43 b/s
Count of elements : 606
Compression mode : Lossless
Stream size : 25.3 KiB (0%)
Language : English
Default : No
Forced : No
1 GB / PART
Download (ไม่อัพโหลด Google Drive แทน)

ลิ๊งเดียวจบ
*** ถ้าโหลดไม่ได้แสดงว่าติด Limit ต้องรอพรุ่งนี้เพราะคนโหลดเยอะนะครับ ***
ลิ๊งเดียวจบ
PASS : http://hdfile4you.clubhd4you.net/
*** ถ้าโหลดไม่ได้แสดงว่าติด Limit ต้องรอพรุ่งนี้เพราะคนโหลดเยอะนะครับ ***
SuperHQ 1080p
Download

ตั้งชื่อไฟล์ตามแบบนี้เท่านั้น
1.White Lily.part1.rar
2.White Lily.part2.rar
3.White Lily.part3.rar
4.White Lily.part4.rar

ปล.  -- Winrar ใส่ Recovery Record 5% ทุกไฟล์ครับ --


ลิ๊งค์ไฟล์เสียโหลดไม่ได้ติดโดยตรงได้ที่ >>คลิก<<
http://hdfile4you.clubhd4you.net/

 
 ตำเเหน่ง: Junior

 มีนามว่า:AryMiku 
สมาชิกคนที่:2699 
เพศ ไม่ระบุ:
กระทู้:
โพสต์:12
พลังน้ำใจ:45 
เงิน:87 
ความดี:45 
เครดิต:57
สิทธิ์อ่าน:20 
สมัครเมื่อ:2018-10-2 
ชมล่าสุด:2019-8-5 
ออนไลน์:
สถานะใช้งาน:ออฟไลน์
คุณยังไม่ได้ใช้เหรียญ
กรุณาคลิกที่นี่เพื่อใช้เหรียญ


โพสต์ 2019-2-9 21:33:45
ขอบคุณครับผม

 
 ตำเเหน่ง: Master

 มีนามว่า:chalikokung 
สมาชิกคนที่:2133 
เพศ ไม่ระบุ:
กระทู้:
โพสต์:28
พลังน้ำใจ:554 
เงิน:1446 
ความดี:714 
เครดิต:582
สิทธิ์อ่าน:50 
สมัครเมื่อ:2016-12-19 
ชมล่าสุด:2019-8-14 
ออนไลน์:557 
สถานะใช้งาน:ออฟไลน์
คุณยังไม่ได้ใช้เหรียญ
กรุณาคลิกที่นี่เพื่อใช้เหรียญ


โพสต์ 2019-2-10 03:57:53
เรื่องนี้เป็นหนัง จีนหรือ ญี่ปุ่นครับ
ขออภัย! คุณไม่ได้รับสิทธิ์ในการดำเนินการในส่วนนี้ กรุณาเลือกอย่างใดอย่างหนึ่ง ลงชื่อเข้าใช้ | ลงทะเบียน

รายละเอียดเครดิต

ปิด

ประกาศจากทางเว็ป Hdfile4youก่อนหน้า /3 ต่อไป

cornfile.com

ประวัติการแบน|อุปกรณ์พกพา|ข้อความล้วน|โหลดหนัง หนังใหม่ เก่า เพลง โหลดฟรี ดูฟรี Hdfile4you

GMT+7, 2019-8-23 23:33 , Processed in 0.065598 second(s), 31 queries .

Powered by Discuz! X3.4 R20180101, Rev.59

© 2001-2017 Comsenz Inc.

ตอบกระทู้ ขึ้นไปด้านบน ไปที่หน้ารายการกระทู้