โหลดหนัง Hdfile4you

 ลืมรหัสผ่าน
 ลงทะเบียน
ค้นหา
ดู: 134|ตอบกลับ: 0

[MiniHD มาสเตอร์มาแล้ว] Malicious (2018) : ไม่ไปผุด ไม่ไปเกิด [1080p][พากย์ไทย5.1+อังกฤษ5.1][บรรยายไทย+อังกฤษ]

[คัดลอกลิงก์]

 
 ตำเเหน่ง: ผู้ดูแลระบบ

 มีนามว่า:admin 
สมาชิกคนที่:
เพศ: ชาย
กระทู้:3576 
โพสต์:4596
พลังน้ำใจ:100561 
เงิน:100640 
ความดี:100561 
เครดิต:105157
สิทธิ์อ่าน:200 
สมัครเมื่อ:2015-8-12 
ชมล่าสุด:2019-5-19 
ออนไลน์:2693 
สถานะใช้งาน:ออฟไลน์
เหรียญเกียรติยศ
ประดับยศนักโพสต์ยอดเยี่ยม ประดับยศนักแบ่งปันยอดเยี่ยม ประดับยศนักกิจกรรมยอดเยี่ยม ประดับยศนักเชิญชวนยอดเยี่ยม ประดับยศนักเขียนบทความยอดเยี่ยม ประดับยศนักออกแบบยอดเยี่ยม ประดับยศกิตติมศักดิ์ ประดับยศผู้ให้การสนับสนุน ประดับยศผู้ตั้งโพสต์ ประดับยศผู้ทรงคุณวุฒิ ประดับยศผู้สมัครสมาชิกใหม่ ประดับยศผู้ออนไลน์ต่อเนื่อง ประดับยศนักออนไลน์ยอดเยี่ยม


โพสต์ 2019-2-21 20:24:12 | ดู: 134| ตอบกลับ: 0
[MiniHD มาสเตอร์มาแล้ว] Malicious (2018) : ไม่ไปผุด ไม่ไปเกิด [1080p][พากย์ไทย5.1+อังกฤษ5.1][บรรยายไทย+อังกฤษ]

ad213qrqwf.jpg

https://www.imdb.com/title/tt6197494/   X-Men: Apocalypse(2016) on IMDb
ปรากฏการณ์ความสยองครั้งใหม่โดยโปรดิวเซอร์มือทองจาก The Collector และ Get Out ว่าด้วยสายใยความผูกพันระหว่างแม่กับลูกที่แม้ความตายก็ไม่อาจพรากไปได้ เมื่อ อดัม (จอช สจวร์ต) ศาสตราจารย์หนุ่ม และ ลิซ่า (โบยานา โนวาโควิช) ภรรยาท้องแก่ของเขา ผ่านเหตุการณ์โศกนาฏกรรมเปลี่ยนชีวิตมาได้ สองสามีภรรยาและครอบครัวพบว่าพวกเขาทั้งหมดถูกหลอกหลอนโดยสิ่งลึกลับเหนือธรรมชาติ จนเขาต้องขอความช่วยเหลือจาก ดร. คลาร์ก (เดลรอย ลินโด) ศาสตราจารย์สาขาปรจิตวิทยาของมหาวิทยาลัยแห่งหนึ่ง ผู้เดียวที่อาจสามารถไขความลับเบื้องหลังปรากฏการณ์นี้ได้!!!
General
Unique ID                                : 230974447707924059109736754740523122568 (0xADC40F7E6DC1E1DA1F64D7F89BEB3F88)
Complete name                            : D:\อัพหนัง\Malicious.2018.1080p.WEB-DL.AC3.x264_hdfile4you.clubhd4you.net.mkv
Format                                   : Matroska
Format version                           : Version 4 / Version 2
File size                                : 3.43 GiB
Duration                                 : 1h 30mn
Overall bit rate                         : 5 411 Kbps
Movie name                               : Malicious.2018.1080p.WEB-DL.AC3.x264_hdfile4you.clubhd4you.net
Encoded date                             : UTC 2019-02-21 12:44:41
Writing application                      : mkvmerge v31.0.0 ('Dolores In A Shoestand') 64-bit
Writing library                          : libebml v1.3.6 + libmatroska v1.4.9
DURATION                                 : 01:22:52.473000000
NUMBER_OF_FRAMES                         : 784
NUMBER_OF_BYTES                          : 2154860
_STATISTICS_WRITING_APP                  : mkvmerge v31.0.0 ('Dolores In A Shoestand') 64-bit
_STATISTICS_WRITING_DATE_UTC             : 2019-02-21 12:44:41
_STATISTICS_TAGS                         : BPS DURATION NUMBER_OF_FRAMES NUMBER_OF_BYTES

Video
ID                                       : 1
Format                                   : AVC
Format/Info                              : Advanced Video Codec
Format profile                           : [email protected]
Format settings, CABAC                   : Yes
Format settings, ReFrames                : 5 frames
Codec ID                                 : V_MPEG4/ISO/AVC
Duration                                 : 1h 30mn
Bit rate                                 : 4 471 Kbps
Width                                    : 1 912 pixels
Height                                   : 788 pixels
Display aspect ratio                     : 2.40:1
Frame rate mode                          : Constant
Frame rate                               : 23.976 fps
Color space                              : YUV
Chroma subsampling                       : 4:2:0
Bit depth                                : 8 bits
Scan type                                : Progressive
Bits/(Pixel*Frame)                       : 0.124
Stream size                              : 2.84 GiB (83%)
Title                                    : Malicious.2018.1080p.WEB-DL.AC3.x264_hdfile4you.clubhd4you.net
Language                                 : English
Default                                  : Yes
Forced                                   : No
Color primaries                          : BT.709
Transfer characteristics                 : BT.709
Matrix coefficients                      : BT.709

Audio #1
ID                                       : 2
Format                                   : AC-3
Format/Info                              : Audio Coding 3
Mode extension                           : CM (complete main)
Format settings, Endianness              : Big
Codec ID                                 : A_AC3
Duration                                 : 1h 30mn
Bit rate mode                            : Constant
Bit rate                                 : 448 Kbps
Channel(s)                               : 6 channels
Channel positions                        : Front: L C R, Side: L R, LFE
Sampling rate                            : 48.0 KHz
Bit depth                                : 16 bits
Compression mode                         : Lossy
Delay relative to video                  : -42ms
Stream size                              : 291 MiB (8%)
Title                                    : Thai Master 5.1 By_hdfile4you.clubhd4you.net
Language                                 : Thai
Default                                  : Yes
Forced                                   : Yes

Audio #2
ID                                       : 3
Format                                   : AC-3
Format/Info                              : Audio Coding 3
Mode extension                           : CM (complete main)
Format settings, Endianness              : Big
Codec ID                                 : A_AC3
Duration                                 : 1h 30mn
Bit rate mode                            : Constant
Bit rate                                 : 384 Kbps
Channel(s)                               : 6 channels
Channel positions                        : Front: L C R, Side: L R, LFE
Sampling rate                            : 48.0 KHz
Bit depth                                : 16 bits
Compression mode                         : Lossy
Delay relative to video                  : -42ms
Stream size                              : 250 MiB (7%)
Title                                    : English 5.1 By_hdfile4you.clubhd4you.net
Language                                 : English
Default                                  : No
Forced                                   : No

Text #1
ID                                       : 4
Format                                   : VobSub
Muxing mode                              : zlib
Codec ID                                 : S_VOBSUB
Codec ID/Info                            : The same subtitle format used on DVDs
Title                                    : Thai 480p By_hdfile4you
Language                                 : Thai
Default                                  : No
Forced                                   : No

Text #2
ID                                       : 5
Format                                   : VobSub
Muxing mode                              : zlib
Codec ID                                 : S_VOBSUB
Codec ID/Info                            : The same subtitle format used on DVDs
Title                                    : Thai 720 By_hdfile4you
Language                                 : Thai
Default                                  : No
Forced                                   : No

Text #3
ID                                       : 6
Format                                   : VobSub
Muxing mode                              : zlib
Codec ID                                 : S_VOBSUB
Codec ID/Info                            : The same subtitle format used on DVDs
Title                                    : Thai 1080p By_hdfile4you
Language                                 : Thai
Default                                  : No
Forced                                   : No

Text #4
ID                                       : 7
Format                                   : VobSub
Muxing mode                              : zlib
Codec ID                                 : S_VOBSUB
Codec ID/Info                            : The same subtitle format used on DVDs
Title                                    : Thai 1080p Yellow By_hdfile4you
Language                                 : Thai
Default                                  : No
Forced                                   : No

Text #5
ID                                       : 8
Format                                   : VobSub
Muxing mode                              : zlib
Codec ID                                 : S_VOBSUB
Codec ID/Info                            : The same subtitle format used on DVDs
Title                                    : Thai 1080p Out By_hdfile4you
Language                                 : Thai
Default                                  : No
Forced                                   : No

Text #6
ID                                       : 9
Format                                   : PGS
Muxing mode                              : zlib
Codec ID                                 : S_HDMV/PGS
Codec ID/Info                            : The same subtitle format used on BDs/HD-DVDs
Title                                    : Thai PGS By_hdfile4you
Language                                 : Thai
Default                                  : Yes
Forced                                   : Yes

Text #7
ID                                       : 10
Format                                   : VobSub
Muxing mode                              : zlib
Codec ID                                 : S_VOBSUB
Codec ID/Info                            : The same subtitle format used on DVDs
Title                                    : English By_hdfile4you
Language                                 : English
Default                                  : No
Forced                                   : No

ดาวน์โหลด

ตรวจสอบสถานะ: ต้องซื้อหรือสิทธิไม่เพียงพอ

กลุ่มผู้ใช้ของคุณ: ผู้เยี่ยมชม

ชื่อไฟล์: Malicious 
ดาวน์โหลด: 1  ขนาดไฟล์: 3.43 GB 
สิทธิ์ในการดาวน์โหลด: VIP  ขึ้นไป หรือ สมาชิก VIP   [ซื้อวีไอพี]   [ซื้อกลุ่ม VIP]

ดาวน์โหลด

ตรวจสอบสถานะ: ต้องซื้อหรือสิทธิไม่เพียงพอ

กลุ่มผู้ใช้ของคุณ: ผู้เยี่ยมชม

ชื่อไฟล์: Malicious 
ดาวน์โหลด: 1  ขนาดไฟล์: 1.83 GB 
สิทธิ์ในการดาวน์โหลด: VIP  ขึ้นไป หรือ สมาชิก VIP   [ซื้อวีไอพี]   [ซื้อกลุ่ม VIP]




ลิ๊งค์ไฟล์เสียโหลดไม่ได้ติดโดยตรงได้ที่ >>คลิก<<
http://hdfile4you.clubhd4you.net/
ขออภัย! คุณไม่ได้รับสิทธิ์ในการดำเนินการในส่วนนี้ กรุณาเลือกอย่างใดอย่างหนึ่ง ลงชื่อเข้าใช้ | ลงทะเบียน

รายละเอียดเครดิต

ปิด

ประกาศจากทางเว็ป Hdfile4youก่อนหน้า /3 ต่อไป

cornfile.com

ประวัติการแบน|อุปกรณ์พกพา|ข้อความล้วน|โหลดหนัง หนังใหม่ เก่า เพลง โหลดฟรี ดูฟรี Hdfile4you

website counter

GMT+7, 2019-5-23 18:11 , Processed in 0.033768 second(s), 27 queries .

Powered by Discuz! X3.4 R20180101, Rev.59

© 2001-2017 Comsenz Inc.

ตอบกระทู้ ขึ้นไปด้านบน ไปที่หน้ารายการกระทู้