โหลดหนัง Hdfile4you

 ลืมรหัสผ่าน
 ลงทะเบียน
ค้นหา
ดู: 93|ตอบกลับ: 0

[MiniHD หนังเด็กนรก] The Good Son (1993) : โดดเดี่ยวนิสัยมรณะ [1080p][พากย์ไทย2.0+อังกฤษ2.0][บรรยายไทย+อังกฤษ]

[คัดลอกลิงก์]

 
 ตำเเหน่ง: ผู้ดูแลระบบ

 มีนามว่า:admin 
สมาชิกคนที่:
เพศ: ชาย
กระทู้:3461 
โพสต์:4481
พลังน้ำใจ:100411 
เงิน:100427 
ความดี:100411 
เครดิต:104892
สิทธิ์อ่าน:200 
สมัครเมื่อ:2015-8-12 
ชมล่าสุด:2019-3-24 
ออนไลน์:2644 
สถานะใช้งาน:ออฟไลน์
เหรียญเกียรติยศ
ประดับยศนักโพสต์ยอดเยี่ยม ประดับยศนักแบ่งปันยอดเยี่ยม ประดับยศนักกิจกรรมยอดเยี่ยม ประดับยศนักเชิญชวนยอดเยี่ยม ประดับยศนักเขียนบทความยอดเยี่ยม ประดับยศนักออกแบบยอดเยี่ยม ประดับยศกิตติมศักดิ์ ประดับยศผู้ให้การสนับสนุน ประดับยศผู้ตั้งโพสต์ ประดับยศผู้ทรงคุณวุฒิ ประดับยศผู้สมัครสมาชิกใหม่ ประดับยศผู้ออนไลน์ต่อเนื่อง ประดับยศนักออนไลน์ยอดเยี่ยม


โพสต์ 2019-2-23 08:40:33 | ดู: 93| ตอบกลับ: 0
[MiniHD หนังเด็กนรก] The Good Son (1993) : โดดเดี่ยวนิสัยมรณะ [1080p][พากย์ไทย2.0+อังกฤษ2.0][บรรยายไทย+อังกฤษ]

26199_front.jpg

http://www.imdb.com/title/tt0107034/   X-Men: Apocalypse(2016) on IMDb
หนุ่มน้อยนามว่า มาร์ค อีแวนส์ (Elijah Wood) เพิ่งสูญเสียแม่ไป ขณะเดียวกันพ่อของเขาก็จะต้องไปทำธุระที่โตเกียวทำให้มาร์คถูกนำมาฝากไว้ที่บ้านลุงกับป้าซึ่งที่แห่งนั้นน่าจะทำให้มาร์ครู้สึกดีได้เพราะมีญาติๆ ที่รักเขา และยังมีเฮนรี่ (Macaulay Culkin) ลูกพี่ลูกน้องรุ่นราวคราวเดียวกันไว้เป็นเพื่อนเล่นด้วย
แต่แล้วมาร์คเริ่มรู้สึกแปลกๆ เมื่อเฮนรี่มีพฤติกรรมที่น่ากลัว แม้ใบหน้าของเฮนรี่จะยิ้มอยู่เสมอๆ แต่สิ่งที่เขาทำกลับอันตราย บางครั้งก็ก่อความเสียหายให้กับผู้คนแบบที่มาร์คเองก็นึกไม่ถึง จนเขาพยายามเอาเรื่องนี้ไปบอกกับใครๆ แต่ก็ไม่มีคนเชื่อ
แล้วเรื่องจะเป็นอย่างไรต่อไป เมื่อเฮนรี่ชักจะรู้สึกว่า มาร์ครู้เรื่องของเขามากเกินไป และควรจะหายๆ ไปจากโลกซะ
General
Unique ID                                : 155300672149015585431969643979004080585 (0x74D5D24D01A7A303FE6FBA5FC31E71C9)
Complete name                            : D:\อัพหนัง\The.Good.Son.1993.1080p.DD.2.0.WEB-DL.x264_hdfile4you.clubhd4you.net.mkv
Format                                   : Matroska
Format version                           : Version 4 / Version 2
File size                                : 3.44 GiB
Duration                                 : 1h 27mn
Overall bit rate                         : 5 643 Kbps
Movie name                               : The.Good.Son.1993.1080p.DD.2.0.WEB-DL.x264_hdfile4you.clubhd4you.net
Encoded date                             : UTC 2019-02-22 13:52:47
Writing application                      : mkvmerge v31.0.0 ('Dolores In A Shoestand') 64-bit
Writing library                          : libebml v1.3.6 + libmatroska v1.4.9
DURATION                                 : 01:20:00.550000000
NUMBER_OF_FRAMES                         : 711
NUMBER_OF_BYTES                          : 23399
_STATISTICS_WRITING_APP                  : mkvmerge v31.0.0 ('Dolores In A Shoestand') 64-bit
_STATISTICS_WRITING_DATE_UTC             : 2019-02-22 13:52:47
_STATISTICS_TAGS                         : BPS DURATION NUMBER_OF_FRAMES NUMBER_OF_BYTES

Video
ID                                       : 1
Format                                   : AVC
Format/Info                              : Advanced Video Codec
Format profile                           : [email protected]
Format settings, CABAC                   : Yes
Format settings, ReFrames                : 2 frames
Codec ID                                 : V_MPEG4/ISO/AVC
Duration                                 : 1h 27mn
Bit rate                                 : 5 115 Kbps
Width                                    : 1 920 pixels
Height                                   : 1 080 pixels
Display aspect ratio                     : 16:9
Frame rate mode                          : Constant
Frame rate                               : 23.976 fps
Color space                              : YUV
Chroma subsampling                       : 4:2:0
Bit depth                                : 8 bits
Scan type                                : Progressive
Bits/(Pixel*Frame)                       : 0.103
Stream size                              : 3.11 GiB (91%)
Title                                    : The.Good.Son.1993.1080p.DD.2.0.WEB-DL.x264_hdfile4you.clubhd4you.net
Writing library                          : x264 core
Language                                 : English
Default                                  : Yes
Forced                                   : Yes
Color primaries                          : BT.709
Transfer characteristics                 : BT.709
Matrix coefficients                      : BT.709

Audio #1
ID                                       : 2
Format                                   : AC-3
Format/Info                              : Audio Coding 3
Mode extension                           : CM (complete main)
Format settings, Endianness              : Big
Codec ID                                 : A_AC3
Duration                                 : 1h 27mn
Bit rate mode                            : Constant
Bit rate                                 : 224 Kbps
Channel(s)                               : 2 channels
Channel positions                        : Front: L R
Sampling rate                            : 48.0 KHz
Bit depth                                : 16 bits
Compression mode                         : Lossy
Delay relative to video                  : 1s 0ms
Stream size                              : 140 MiB (4%)
Title                                    : THAI  2.0 By_hdfile4you.clubhd4you.net
Language                                 : Thai
Default                                  : Yes
Forced                                   : Yes

Audio #2
ID                                       : 3
Format                                   : AC-3
Format/Info                              : Audio Coding 3
Mode extension                           : CM (complete main)
Format settings, Endianness              : Big
Codec ID                                 : A_AC3
Duration                                 : 1h 27mn
Bit rate mode                            : Constant
Bit rate                                 : 192 Kbps
Channel(s)                               : 2 channels
Channel positions                        : Front: L R
Sampling rate                            : 48.0 KHz
Bit depth                                : 16 bits
Compression mode                         : Lossy
Stream size                              : 120 MiB (3%)
Title                                    : ENG 2.0 By_hdfile4you.clubhd4you.net
Language                                 : English
Default                                  : No
Forced                                   : No

Text #1
ID                                       : 4
Format                                   : VobSub
Muxing mode                              : zlib
Codec ID                                 : S_VOBSUB
Codec ID/Info                            : The same subtitle format used on DVDs
Title                                    : THAI 480p By_hdfile4you
Language                                 : Thai
Default                                  : No
Forced                                   : No

Text #2
ID                                       : 5
Format                                   : VobSub
Muxing mode                              : zlib
Codec ID                                 : S_VOBSUB
Codec ID/Info                            : The same subtitle format used on DVDs
Title                                    : THAI 1080p By_hdfile4you
Language                                 : Thai
Default                                  : No
Forced                                   : No

Text #3
ID                                       : 6
Format                                   : VobSub
Muxing mode                              : zlib
Codec ID                                 : S_VOBSUB
Codec ID/Info                            : The same subtitle format used on DVDs
Title                                    : THAI 1080p Yellow By_hdfile4you
Language                                 : Thai
Default                                  : No
Forced                                   : No

Text #4
ID                                       : 7
Format                                   : VobSub
Muxing mode                              : zlib
Codec ID                                 : S_VOBSUB
Codec ID/Info                            : The same subtitle format used on DVDs
Title                                    : THAI 1080p Yellow By_hdfile4you
Language                                 : Thai
Default                                  : No
Forced                                   : No

Text #5
ID                                       : 8
Format                                   : PGS
Muxing mode                              : zlib
Codec ID                                 : S_HDMV/PGS
Codec ID/Info                            : The same subtitle format used on BDs/HD-DVDs
Title                                    : THAI PGS 1080p By_hdfile4you
Language                                 : Thai
Default                                  : Yes
Forced                                   : Yes

Text #6
ID                                       : 9
Format                                   : PGS
Muxing mode                              : zlib
Codec ID                                 : S_HDMV/PGS
Codec ID/Info                            : The same subtitle format used on BDs/HD-DVDs
Title                                    : THAI PGS 1080p Out By_hdfile4you
Language                                 : Thai
Default                                  : No
Forced                                   : No

Text #7
ID                                       : 10
Format                                   : UTF-8
Codec ID                                 : S_TEXT/UTF8
Codec ID/Info                            : UTF-8 Plain Text
Title                                    : ENG SRT By_hdfile4you
Language                                 : English
Default                                  : No
Forced                                   : No

ดาวน์โหลด

ตรวจสอบสถานะ: ต้องซื้อหรือสิทธิไม่เพียงพอ

กลุ่มผู้ใช้ของคุณ: ผู้เยี่ยมชม

ชื่อไฟล์: The Good Son 
ดาวน์โหลด: 1  ขนาดไฟล์: 3.43 GB 
สิทธิ์ในการดาวน์โหลด: VIP  ขึ้นไป หรือ สมาชิก VIP   [ซื้อวีไอพี]   [ซื้อกลุ่ม VIP]




ลิ๊งค์ไฟล์เสียโหลดไม่ได้ติดโดยตรงได้ที่ >>คลิก<<
http://hdfile4you.clubhd4you.net/
ขออภัย! คุณไม่ได้รับสิทธิ์ในการดำเนินการในส่วนนี้ กรุณาเลือกอย่างใดอย่างหนึ่ง ลงชื่อเข้าใช้ | ลงทะเบียน

รายละเอียดเครดิต

ปิด

ประกาศจากทางเว็ป Hdfile4youก่อนหน้า /3 ต่อไป

cornfile.com

ประวัติการแบน|อุปกรณ์พกพา|ข้อความล้วน|โหลดหนัง หนังใหม่ เก่า เพลง โหลดฟรี ดูฟรี Hdfile4you

website counter

GMT+7, 2019-3-24 17:38 , Processed in 0.067362 second(s), 27 queries .

Powered by Discuz! X3.4 R20180101, Rev.59

© 2001-2017 Comsenz Inc.

ตอบกระทู้ ขึ้นไปด้านบน ไปที่หน้ารายการกระทู้