โหลดหนัง Hdfile4you

 ลืมรหัสผ่าน
 ลงทะเบียน
Loading...
ค้นหา
ดู: 97|ตอบกลับ: 0

[ใหม่สดๆร้อนๆ ชัดมาสเตอร์ชนโรง!] The Quake (2019) : มหาวิบัติวันถล่มโลก [1080p] [พากย์ไทยโรง2.0+นอร์เวย์ 2.0][บรรยายไทย+อังกฤษ]

[คัดลอกลิงก์]

 
 ตำเเหน่ง: ผู้ดูแลระบบ

 มีนามว่า:admin 
สมาชิกคนที่:
เพศ: ชาย
กระทู้:3461 
โพสต์:4481
พลังน้ำใจ:100411 
เงิน:100427 
ความดี:100411 
เครดิต:104892
สิทธิ์อ่าน:200 
สมัครเมื่อ:2015-8-12 
ชมล่าสุด:2019-3-24 
ออนไลน์:2644 
สถานะใช้งาน:ออฟไลน์
เหรียญเกียรติยศ
ประดับยศนักโพสต์ยอดเยี่ยม ประดับยศนักแบ่งปันยอดเยี่ยม ประดับยศนักกิจกรรมยอดเยี่ยม ประดับยศนักเชิญชวนยอดเยี่ยม ประดับยศนักเขียนบทความยอดเยี่ยม ประดับยศนักออกแบบยอดเยี่ยม ประดับยศกิตติมศักดิ์ ประดับยศผู้ให้การสนับสนุน ประดับยศผู้ตั้งโพสต์ ประดับยศผู้ทรงคุณวุฒิ ประดับยศผู้สมัครสมาชิกใหม่ ประดับยศผู้ออนไลน์ต่อเนื่อง ประดับยศนักออนไลน์ยอดเยี่ยม


โพสต์ 2019-2-26 18:38:26 | ดู: 97| ตอบกลับ: 0
[ใหม่สดๆร้อนๆ ชัดมาสเตอร์ชนโรง!] The Quake (2019) : มหาวิบัติวันถล่มโลก [1080p] [พากย์ไทยโรง2.0+นอร์เวย์ 2.0][บรรยายไทย+อังกฤษ]

MV5BNjYzYW.jpg

https://www.imdb.com/title/tt6523720/   X-Men: Apocalypse(2016) on IMDb
ในปี 1904 ที่กรุงออสโล เมืองหลวงของประเทศนอร์เวย์ได้เกิดแผ่นดินไหวขนาด 5.4 ริกเตอร์ แต่แล้วก็ไม่มีใครคาดคิดว่าอีกหลายร้อยกว่าปีผ่านไปจะเกิดเหตุแผ่นดินไหวครั้งใหญ่ที่สุดและรุนแรงที่สุดตามมาอีกครั้ง และนี่คือเรื่องราวของนักธรณีวิทยา คริสเตียน (คริสโตฟเฟอร์ โยเนอร์) ผู้ซึ่งเพิ่งรอดพ้นจากสึนามิ และต้องเผชิญหน้ากับหายนะแผ่นดินไหวที่เขาไม่คาดคิด เขาต้องพยายามพาครอบครัวของเขาออกจากเมืองแห่งนี้ก่อนที่จะทุกอย่างจะพังทลาย !!!
Video
ID                                       : 1
Format                                   : AVC
Format/Info                              : Advanced Video Codec
Format profile                           : [email protected]
Format settings                          : CABAC / 4 Ref Frames
Format settings, CABAC                   : Yes
Format settings, RefFrames               : 4 frames
Codec ID                                 : V_MPEG4/ISO/AVC
Duration                                 : 1 h 47 min
Bit rate                                 : 2 400 kb/s
Width                                    : 1 920 pixels
Height                                   : 804 pixels
Display aspect ratio                     : 2.40:1
Frame rate mode                          : Constant
Frame rate                               : 24.000 FPS
Color space                              : YUV
Chroma subsampling                       : 4:2:0
Bit depth                                : 8 bits
Scan type                                : Progressive
Bits/(Pixel*Frame)                       : 0.065
Stream size                              : 1.81 GiB (88%)
Title                                    : The.Quake.2018.1080p.BluRay.x264.AC3.THR2.0_Scarlett98
Writing library                          : x264 core 155 r2901 7d0ff22
Encoding settings                        : cabac=1 / ref=3 / deblock=1:0:0 / analyse=0x3:0x113 / me=hex / subme=7 / psy=1 / psy_rd=1.00:0.00 / mixed_ref=1 / me_range=16 / chroma_me=1 / trellis=1 / 8x8dct=1 / cqm=0 / deadzone=21,11 / fast_pskip=1 / chroma_qp_offset=-2 / threads=25 / lookahead_threads=4 / sliced_threads=0 / nr=0 / decimate=1 / interlaced=0 / bluray_compat=0 / constrained_intra=0 / bframes=3 / b_pyramid=2 / b_adapt=1 / b_bias=0 / direct=1 / weightb=1 / open_gop=0 / weightp=2 / keyint=250 / keyint_min=24 / scenecut=40 / intra_refresh=0 / rc_lookahead=40 / rc=2pass / mbtree=1 / bitrate=2400 / ratetol=1.0 / qcomp=0.60 / qpmin=0 / qpmax=69 / qpstep=4 / cplxblur=20.0 / qblur=0.5 / ip_ratio=1.40 / aq=1:1.00
Language                                 : Norwegian
Default                                  : Yes
Forced                                   : Yes

Audio 1
ID                                       : 2
Format                                   : AC-3
Format/Info                              : Audio Coding 3
Codec ID                                 : A_AC3
Duration                                 : 1 h 47 min
Bit rate mode                            : Constant
Bit rate                                 : 192 kb/s
Channel(s)                               : 2 channels
Channel positions                        : Front: L R
Sampling rate                            : 48.0 kHz
Frame rate                               : 31.250 FPS (1536 SPF)
Bit depth                                : 16 bits
Compression mode                         : Lossy
Stream size                              : 148 MiB (7%)
Title                                    : Thai Rong 2.0 Modified By Scarlett98
Language                                 : Thai
Service kind                             : Complete Main
Default                                  : Yes
Forced                                   : Yes

Audio 2
ID                                       : 3
Format                                   : AAC
Format/Info                              : Advanced Audio Codec
Format profile                           : HE-AAC / LC
Format settings                          : NBC
Codec ID                                 : A_AAC-5
Duration                                 : 1 h 47 min
Bit rate                                 : 128 kb/s
Channel(s)                               : 2 channels
Channel positions                        : Front: L R
Sampling rate                            : 48.0 kHz / 24.0 kHz
Frame rate                               : 23.438 FPS (1024 SPF)
Compression mode                         : Lossy
Stream size                              : 98.6 MiB (5%)
Title                                    : Norwegian 2.0
Language                                 : Norwegian
Default                                  : No
Forced                                   : No

Text 1
ID                                       : 4
Format                                   : VobSub
Muxing mode                              : zlib
Codec ID                                 : S_VOBSUB
Codec ID/Info                            : Picture based subtitle format used on DVDs
Duration                                 : 1 h 42 min
Bit rate                                 : 3 349 b/s
Count of elements                        : 505
Stream size                              : 2.45 MiB (0%)
Title                                    : Thai 1080p
Language                                 : Thai
Default                                  : Yes
Forced                                   : Yes

Text 2
ID                                       : 5
Format                                   : UTF-8
Codec ID                                 : S_TEXT/UTF8
Codec ID/Info                            : UTF-8 Plain Text
Duration                                 : 1 h 38 min
Bit rate                                 : 23 b/s
Count of elements                        : 496
Stream size                              : 17.1 KiB (0%)
Title                                    : English SRT
Language                                 : English
Default                                  : No
Forced                                   : No

ดาวน์โหลด

ตรวจสอบสถานะ: ต้องซื้อหรือสิทธิไม่เพียงพอ

กลุ่มผู้ใช้ของคุณ: ผู้เยี่ยมชม

ชื่อไฟล์: The Quake 
ดาวน์โหลด: 5  ขนาดไฟล์: 2.05 GB 
สิทธิ์ในการดาวน์โหลด: VIP  ขึ้นไป หรือ สมาชิก VIP   [ซื้อวีไอพี]   [ซื้อกลุ่ม VIP]




ลิ๊งค์ไฟล์เสียโหลดไม่ได้ติดโดยตรงได้ที่ >>คลิก<<
http://hdfile4you.clubhd4you.net/
ขออภัย! คุณไม่ได้รับสิทธิ์ในการดำเนินการในส่วนนี้ กรุณาเลือกอย่างใดอย่างหนึ่ง ลงชื่อเข้าใช้ | ลงทะเบียน

รายละเอียดเครดิต

ปิด

ประกาศจากทางเว็ป Hdfile4youก่อนหน้า /3 ต่อไป

cornfile.com

ประวัติการแบน|อุปกรณ์พกพา|ข้อความล้วน|โหลดหนัง หนังใหม่ เก่า เพลง โหลดฟรี ดูฟรี Hdfile4you

website counter

GMT+7, 2019-3-24 18:17 , Processed in 0.034340 second(s), 27 queries .

Powered by Discuz! X3.4 R20180101, Rev.59

© 2001-2017 Comsenz Inc.

ตอบกระทู้ ขึ้นไปด้านบน ไปที่หน้ารายการกระทู้