โหลดหนัง Hdfile4you

 ลืมรหัสผ่าน
 ลงทะเบียน
Loading...
ค้นหา
ดู: 206|ตอบกลับ: 0

[ใหม่สดๆร้อนๆ! ชัดชนโรง!] The Prodigy (2019) : เด็ก(จอง)เวร [720p][พากย์ไทยโรง2.0+อังกฤษ2.0]

[คัดลอกลิงก์]

 
 ตำเเหน่ง: ผู้ดูแลระบบ

 มีนามว่า:hdfile4you 
สมาชิกคนที่:
เพศ ไม่ระบุ:
กระทู้:142 
โพสต์:144
พลังน้ำใจ:176 
เงิน:234 
ความดี:186 
เครดิต:320
สิทธิ์อ่าน:200 
สมัครเมื่อ:2015-8-16 
ชมล่าสุด:2019-3-24 
ออนไลน์:52 
สถานะใช้งาน:ออนไลน์
เหรียญเกียรติยศ
ประดับยศนักโพสต์ยอดเยี่ยม ประดับยศนักออนไลน์ยอดเยี่ยม ประดับยศนักแบ่งปันยอดเยี่ยม ประดับยศนักกิจกรรมยอดเยี่ยม ประดับยศนักเชิญชวนยอดเยี่ยม ประดับยศนักเขียนบทความยอดเยี่ยม ประดับยศนักออกแบบยอดเยี่ยม ประดับยศกิตติมศักดิ์ ประดับยศผู้ให้การสนับสนุน ประดับยศผู้ทรงคุณวุฒิ ประดับยศผู้สมัครสมาชิกใหม่ ประดับยศผู้ตั้งโพสต์ ประดับยศผู้ออนไลน์ต่อเนื่อง ประดับยศผู้ร่วมบริจากช่วยเหลือเว็บ


โพสต์ 2019-2-26 19:00:06 | ดู: 206| ตอบกลับ: 0
[ใหม่สดๆร้อนๆ! ชัดชนโรง!] The Prodigy (2019) : เด็ก(จอง)เวร [720p][พากย์ไทยโรง2.0+อังกฤษ2.0]

MV5BYTQ.jpg

https://www.imdb.com/title/tt4504044/  6.0/102,754 votes
Alita: Battle Angel เป็นเหตุการณ์ที่เกิดขึ้นในศตวรรษที่ 26 ที่เล่าถึงเรื่องราวของไซบอร์กสาว อลิตา (โรซา ซาลาซาร์) ที่ถูกดร.ไดสัน อิโดะ (คริสตอฟ วอลท์ซ) ศัลยแพทย์ไซบอร์กเก็บมาจากกองขยะแล้วช่วยซ่อมร่างของเธอให้ หลังจากที่เธอฟื้นขึ้นมาเธอสามารถจำได้เพียงอย่างเดียวก็คือทักษะการต่อสู้รูปแบบเฉพาะของดาวอังคารที่หายสาบสูญไป แล้วเธอก็กลายมาเป็นนักล่า-นักรบ ที่คอยตามไล่ล่ากำจัดเหล่าอาชญากรชั่วร้าย ในมหากาพย์การผจญภัยครั้งนี้อลิตะจะต้องออกเดินทางค้นหาตัวตนของเธอที่สูญหายไป แล้วเธอก็จะได้พบกับความรักด้วย !!!
Video
ID                                       : 1
Format                                   : AVC
Format/Info                              : Advanced Video Codec
Format profile                           : [email protected]
Format settings                          : CABAC / 6 Ref Frames
Format settings, CABAC                   : Yes
Format settings, RefFrames               : 6 frames
Codec ID                                 : V_MPEG4/ISO/AVC
Duration                                 : 1 h 25 min
Bit rate mode                            : Variable
Bit rate                                 : 3 000 kb/s
Maximum bit rate                         : 18.0 Mb/s
Width                                    : 1 280 pixels
Height                                   : 536 pixels
Display aspect ratio                     : 2.40:1
Frame rate mode                          : Constant
Frame rate                               : 29.970 (30000/1001) FPS
Standard                                 : Component
Color space                              : YUV
Chroma subsampling                       : 4:2:0
Bit depth                                : 8 bits
Scan type                                : Progressive
Bits/(Pixel*Frame)                       : 0.146
Stream size                              : 1.79 GiB (88%)
Title                                    : The.Prodigy.2019.720p.HDCAM.x264.AC3.THR2.0
Writing library                          : x264 core 148
Encoding settings                        : cabac=1 / ref=6 / deblock=1:0:0 / analyse=0x3:0x113 / me=hex / subme=7 / psy=1 / psy_rd=1.00:0.00 / mixed_ref=1 / me_range=16 / chroma_me=1 / trellis=1 / 8x8dct=1 / cqm=1 / deadzone=21,11 / fast_pskip=1 / chroma_qp_offset=-2 / threads=12 / lookahead_threads=2 / sliced_threads=0 / slices=1 / nr=0 / decimate=1 / interlaced=0 / minigop=0 / stitchable=1 / constrained_intra=0 / bframes=3 / b_pyramid=0 / b_adapt=1 / b_bias=0 / direct=1 / weightb=1 / open_gop=0 / weightp=2 / keyint=250 / keyint_min=25 / scenecut=40 / intra_refresh=0 / rc_lookahead=40 / rc=abr / mbtree=1 / bitrate=3000 / ratetol=1.0 / qcomp=0.60 / qpmin=3 / qpmax=69 / qpstep=4 / vbv_maxrate=18000 / vbv_bufsize=18000 / nal_hrd=vbr / filler=0 / ip_ratio=1.40 / aq=1:1.00
Default                                  : Yes
Forced                                   : No
Color range                              : Limited
Color primaries                          : BT.709
Transfer characteristics                 : BT.709
Matrix coefficients                      : BT.709

Audio 1
ID                                       : 2
Format                                   : AC-3
Format/Info                              : Audio Coding 3
Codec ID                                 : A_AC3
Duration                                 : 1 h 25 min
Bit rate mode                            : Constant
Bit rate                                 : 192 kb/s
Channel(s)                               : 2 channels
Channel positions                        : Front: L R
Sampling rate                            : 48.0 kHz
Frame rate                               : 31.250 FPS (1536 SPF)
Bit depth                                : 16 bits
Compression mode                         : Lossy
Stream size                              : 117 MiB (6%)
Title                                    : Thai Rong 2.0
Language                                 : Thai
Service kind                             : Complete Main
Default                                  : Yes
Forced                                   : No

Audio 2
ID                                       : 3
Format                                   : AC-3
Format/Info                              : Audio Coding 3
Codec ID                                 : A_AC3
Duration                                 : 1 h 25 min
Bit rate mode                            : Constant
Bit rate                                 : 224 kb/s
Channel(s)                               : 2 channels
Channel positions                        : Front: L R
Sampling rate                            : 48.0 kHz
Frame rate                               : 31.250 FPS (1536 SPF)
Bit depth                                : 16 bits
Compression mode                         : Lossy
Stream size                              : 137 MiB (7%)
Title                                    : English 2.0
Language                                 : English
Service kind                             : Complete Main
Default                                  : No
Forced                                   : No
1 GB / PART
Download (ไม่อัพโหลด Google Drive แทน)

ลิ๊งเดียวจบ
*** ถ้าโหลดไม่ได้แสดงว่าติด Limit ต้องรอพรุ่งนี้เพราะคนโหลดเยอะนะครับ ***
ลิ๊งเดียวจบ
PASS : http://hdfile4you.clubhd4you.net/
*** ถ้าโหลดไม่ได้แสดงว่าติด Limit ต้องรอพรุ่งนี้เพราะคนโหลดเยอะนะครับ ***
SuperHQ 1080p
Download

ตั้งชื่อไฟล์ตามแบบนี้เท่านั้น
1.The Prodigy.part1.rar
2.The Prodigy.part2.rar
3.The Prodigy.part3.rar
4.The Prodigy.part4.rar

ปล.  -- Winrar ใส่ Recovery Record 5% ทุกไฟล์ครับ --


ขออภัย! คุณไม่ได้รับสิทธิ์ในการดำเนินการในส่วนนี้ กรุณาเลือกอย่างใดอย่างหนึ่ง ลงชื่อเข้าใช้ | ลงทะเบียน

รายละเอียดเครดิต

ปิด

ประกาศจากทางเว็ป Hdfile4youก่อนหน้า /3 ต่อไป

cornfile.com

ประวัติการแบน|อุปกรณ์พกพา|ข้อความล้วน|โหลดหนัง หนังใหม่ เก่า เพลง โหลดฟรี ดูฟรี Hdfile4you

website counter

GMT+7, 2019-3-24 17:57 , Processed in 0.035456 second(s), 28 queries .

Powered by Discuz! X3.4 R20180101, Rev.59

© 2001-2017 Comsenz Inc.

ตอบกระทู้ ขึ้นไปด้านบน ไปที่หน้ารายการกระทู้