โหลดหนัง Hdfile4you

 ลืมรหัสผ่าน
 ลงทะเบียน
Loading...
ค้นหา
ดู: 1039|ตอบกลับ: 2

[MiniHQ] Super 8 (2011) : มหาวิบัติลับสะเทือนโลก [1080p][พากย์ไทย5.1+อังกฤษDTS][บรรยายไทย+อังกฤษ]

[คัดลอกลิงก์]

 
 ตำเเหน่ง: ผู้ดูแลระบบ

 มีนามว่า:hdfile4you 
สมาชิกคนที่:
เพศ ไม่ระบุ:
กระทู้:234 
โพสต์:238
พลังน้ำใจ:291 
เงิน:381 
ความดี:301 
เครดิต:529
สิทธิ์อ่าน:200 
สมัครเมื่อ:2015-8-16 
ชมล่าสุด:2019-5-18 
ออนไลน์:101 
สถานะใช้งาน:ออฟไลน์
เหรียญเกียรติยศ
ประดับยศนักโพสต์ยอดเยี่ยม ประดับยศนักออนไลน์ยอดเยี่ยม ประดับยศนักแบ่งปันยอดเยี่ยม ประดับยศนักกิจกรรมยอดเยี่ยม ประดับยศนักเชิญชวนยอดเยี่ยม ประดับยศนักเขียนบทความยอดเยี่ยม ประดับยศนักออกแบบยอดเยี่ยม ประดับยศกิตติมศักดิ์ ประดับยศผู้ให้การสนับสนุน ประดับยศผู้ทรงคุณวุฒิ ประดับยศผู้สมัครสมาชิกใหม่ ประดับยศผู้ตั้งโพสต์ ประดับยศผู้ออนไลน์ต่อเนื่อง ประดับยศผู้ร่วมบริจากช่วยเหลือเว็บ


โพสต์ 2019-3-3 10:09:48 | ดู: 1039| ตอบกลับ: 2
[MiniHQ] Super 8 (2011) : มหาวิบัติลับสะเทือนโลก [1080p][พากย์ไทย5.1+อังกฤษDTS][บรรยายไทย+อังกฤษ]

123798_front.jpg

https://www.imdb.com/title/tt1650062/  7.0/10318,043 votes
ความลับที่ถูกปกปิดมานานหลุดออกมา มหาวิบัติครั้งใหญ่ของโลกจึงอุบัติในผลงานแฟนตาซีผจญภัยสุดระทึก ฟอร์มยักษ์ จาก สตีเว่น สปีลเบิร์ก และ เจเจ อับบรามส์ในปี 1979 หลังจากที่กองทัพอากาศสหรัฐอเมริกา ได้ปิดล้อมพื้นที่ส่วนหนึ่งที่เรียกว่า Area 51 วัตถุพยานทุกอย่างที่พบในพื้นที่นั้นได้ถูกส่งไปเก็บอย่างแน่นหนาในฐานทัพ ที่รัฐโอไฮโอ ทว่าได้เกิดอุบัติเหตุกับขบวนรถไฟที่ขนวัตถุเหล่านั้นเมื่อรถไฟตกรางทำให้มีบางอย่างหลบหนีออกจากตู้รถไฟมาได้ ซึ่งในขณะนั้น เด็กๆกลุ่มหนึ่งที่กำลังลองถ่ายหนังด้วยกล้องซูเปอร์ 8ก็บังเอิญจับภาพเหตุการณ์ที่เกิดขึ้นนี้ได้ ก่อนที่เจ้าสิ่งนั้นจะก่อให้เกิดเรื่องราวอันน่าสะพรึงกับผู้คนทั่วโลก!!!
General
Unique ID                                : 202293683463561401202915453859989897026 (0x983058A41EF50144A4242D136B7D3F42)
Complete name                            : D:\อัพหนัง\Super.8.2011.1080p.BrRip.DTS.x264_hdfile4you.clubhd4you.net.mkv
Format                                   : Matroska
Format version                           : Version 4 / Version 2
File size                                : 3.29 GiB
Duration                                 : 1h 51mn
Overall bit rate                         : 4 217 Kbps
Movie name                               : Super.8.2011.1080p.BrRip.DTS.x264_hdfile4you.clubhd4you.net
Encoded date                             : UTC 2019-03-02 13:59:32
Writing application                      : mkvmerge v31.0.0 ('Dolores In A Shoestand') 64-bit
Writing library                          : libebml v1.3.6 + libmatroska v1.4.9
DURATION                                 : 01:48:00.266000000
NUMBER_OF_FRAMES                         : 1461
NUMBER_OF_BYTES                          : 53046
_STATISTICS_WRITING_APP                  : mkvmerge v31.0.0 ('Dolores In A Shoestand') 64-bit
_STATISTICS_WRITING_DATE_UTC             : 2019-03-02 13:59:32
_STATISTICS_TAGS                         : BPS DURATION NUMBER_OF_FRAMES NUMBER_OF_BYTES

Video
ID                                       : 1
Format                                   : AVC
Format/Info                              : Advanced Video Codec
Format profile                           : [email protected]
Format settings, CABAC                   : Yes
Format settings, ReFrames                : 4 frames
Codec ID                                 : V_MPEG4/ISO/AVC
Duration                                 : 1h 51mn
Bit rate                                 : 2 800 Kbps
Width                                    : 1 920 pixels
Height                                   : 800 pixels
Display aspect ratio                     : 2.40:1
Frame rate mode                          : Constant
Frame rate                               : 23.976 fps
Color space                              : YUV
Chroma subsampling                       : 4:2:0
Bit depth                                : 8 bits
Scan type                                : Progressive
Bits/(Pixel*Frame)                       : 0.076
Stream size                              : 2.14 GiB (65%)
Title                                    : Super.8.2011.1080p.BrRip.DTS.x264_hdfile4you.clubhd4you.net
Writing library                          : x264 core 120
Encoding settings                        : cabac=1 / ref=3 / deblock=1:0:0 / analyse=0x3:0x113 / me=umh / subme=9 / psy=1 / psy_rd=1.00:0.00 / mixed_ref=1 / me_range=16 / chroma_me=1 / trellis=1 / 8x8dct=1 / cqm=0 / deadzone=21,11 / fast_pskip=1 / chroma_qp_offset=-2 / threads=12 / sliced_threads=0 / nr=0 / decimate=1 / interlaced=0 / bluray_compat=0 / constrained_intra=0 / bframes=3 / b_pyramid=2 / b_adapt=2 / b_bias=0 / direct=1 / weightb=1 / open_gop=0 / weightp=2 / keyint=240 / keyint_min=24 / scenecut=40 / intra_refresh=0 / rc_lookahead=50 / rc=2pass / mbtree=1 / bitrate=2800 / ratetol=1.0 / qcomp=0.60 / qpmin=3 / qpmax=69 / qpstep=4 / cplxblur=20.0 / qblur=0.5 / ip_ratio=1.40 / aq=1:1.00
Language                                 : English
Default                                  : Yes
Forced                                   : No
Color primaries                          : BT.709
Transfer characteristics                 : BT.709
Matrix coefficients                      : BT.709

Audio #1
ID                                       : 2
Format                                   : AC-3
Format/Info                              : Audio Coding 3
Mode extension                           : CM (complete main)
Format settings, Endianness              : Big
Codec ID                                 : A_AC3
Duration                                 : 1h 51mn
Bit rate mode                            : Constant
Bit rate                                 : 640 Kbps
Channel(s)                               : 6 channels
Channel positions                        : Front: L C R, Side: L R, LFE
Sampling rate                            : 48.0 KHz
Bit depth                                : 16 bits
Compression mode                         : Lossy
Stream size                              : 512 MiB (15%)
Title                                    : Thai Master 5.1 By_hdfile4you.clubhd4you.net
Language                                 : Thai
Default                                  : Yes
Forced                                   : Yes

Audio #2
ID                                       : 3
Format                                   : DTS
Format/Info                              : Digital Theater Systems
Mode                                     : 16
Format settings, Endianness              : Big
Codec ID                                 : A_DTS
Duration                                 : 1h 51mn
Bit rate mode                            : Constant
Bit rate                                 : 755 Kbps
Channel(s)                               : 6 channels
Channel positions                        : Front: L C R, Side: L R, LFE
Sampling rate                            : 48.0 KHz
Bit depth                                : 24 bits
Compression mode                         : Lossy
Stream size                              : 603 MiB (18%)
Title                                    : English DTS By_hdfile4you.clubhd4you.net
Language                                 : English
Default                                  : No
Forced                                   : No

Text #1
ID                                       : 4
Format                                   : VobSub
Muxing mode                              : zlib
Codec ID                                 : S_VOBSUB
Codec ID/Info                            : The same subtitle format used on DVDs
Title                                    : Thai 1080p  By_hdfile4you
Language                                 : Thai
Default                                  : No
Forced                                   : No

Text #2
ID                                       : 5
Format                                   : VobSub
Muxing mode                              : zlib
Codec ID                                 : S_VOBSUB
Codec ID/Info                            : The same subtitle format used on DVDs
Title                                    : English Commentary  By_hdfile4you
Language                                 : English
Default                                  : No
Forced                                   : No

Text #3
ID                                       : 6
Format                                   : PGS
Muxing mode                              : zlib
Codec ID                                 : S_HDMV/PGS
Codec ID/Info                            : The same subtitle format used on BDs/HD-DVDs
Title                                    : Thai PGS BluRay Master  By_hdfile4you
Language                                 : Thai
Default                                  : Yes
Forced                                   : Yes

Text #4
ID                                       : 7
Format                                   : UTF-8
Codec ID                                 : S_TEXT/UTF8
Codec ID/Info                            : UTF-8 Plain Text
Title                                    : English  By_hdfile4you
Language                                 : English
Default                                  : No
Forced                                   : No
1 GB / PART
Download (ไม่อัพโหลด Google Drive แทน)

ลิ๊งเดียวจบ
*** ถ้าโหลดไม่ได้แสดงว่าติด Limit ต้องรอพรุ่งนี้เพราะคนโหลดเยอะนะครับ ***
ลิ๊งเดียวจบ
PASS : http://hdfile4you.clubhd4you.net/
*** ถ้าโหลดไม่ได้แสดงว่าติด Limit ต้องรอพรุ่งนี้เพราะคนโหลดเยอะนะครับ ***
SuperHQ 1080p
Download
MiniHQ 1080p


ตั้งชื่อไฟล์ตามแบบนี้เท่านั้น
1.Super 8.part1.rar
2.Super 8.part2.rar
3.Super 8.part3.rar
4.Super 8.part4.rar

ปล.  -- Winrar ใส่ Recovery Record 5% ทุกไฟล์ครับ --



 
 ตำเเหน่ง: Legend World

 มีนามว่า:Hataau 
สมาชิกคนที่:71 
เพศ: ชาย
กระทู้:
โพสต์:942
พลังน้ำใจ:851 
เงิน:1240 
ความดี:851 
เครดิต:1793
สิทธิ์อ่าน:70 
สมัครเมื่อ:2015-8-29 
ชมล่าสุด:2019-5-22 
ออนไลน์:401 
สถานะใช้งาน:ออฟไลน์
เหรียญเกียรติยศ
ประดับยศผู้ร่วมบริจากช่วยเหลือเว็บ ประดับยศผู้สมัครสมาชิกใหม่


โพสต์ 2019-3-3 18:55:26
ขอบคุณครับ ฮีโร่ ของ เด็ก ๆ อีกเรื่อง

 
 ตำเเหน่ง: Legend World

 มีนามว่า:whiteherbie 
สมาชิกคนที่:140 
เพศ ไม่ระบุ:
กระทู้:
โพสต์:620
พลังน้ำใจ:464 
เงิน:1549 
ความดี:464 
เครดิต:1084
สิทธิ์อ่าน:70 
สมัครเมื่อ:2015-8-31 
ชมล่าสุด:2019-5-5 
ออนไลน์:335 
สถานะใช้งาน:ออฟไลน์
เหรียญเกียรติยศ
ประดับยศผู้สมัครสมาชิกใหม่


โพสต์ 2019-3-4 11:39:45
เย้ ! มาแล้ว ๆ อย่างไวเลย ขอบคุณมากค่าาาาา
ขออภัย! คุณไม่ได้รับสิทธิ์ในการดำเนินการในส่วนนี้ กรุณาเลือกอย่างใดอย่างหนึ่ง ลงชื่อเข้าใช้ | ลงทะเบียน

รายละเอียดเครดิต

ปิด

ประกาศจากทางเว็ป Hdfile4youก่อนหน้า /3 ต่อไป

cornfile.com

ประวัติการแบน|อุปกรณ์พกพา|ข้อความล้วน|โหลดหนัง หนังใหม่ เก่า เพลง โหลดฟรี ดูฟรี Hdfile4you

website counter

GMT+7, 2019-5-23 17:45 , Processed in 0.054893 second(s), 35 queries .

Powered by Discuz! X3.4 R20180101, Rev.59

© 2001-2017 Comsenz Inc.

ตอบกระทู้ ขึ้นไปด้านบน ไปที่หน้ารายการกระทู้