โหลดหนัง Hdfile4you

 ลืมรหัสผ่าน
 ลงทะเบียน
ค้นหา
ดู: 221|ตอบกลับ: 0

[ใหม่สดๆร้อนๆ ชัดมาสเตอร์!] Aquaman (2018) : อควาแมน เจ้าสมุทร [1080p][พากย์ไทยโรง2.0+อังกฤษ5.1][บรรยายไทย+อังกฤษ]

[คัดลอกลิงก์]

 
 ตำเเหน่ง: ผู้ดูแลระบบ

 มีนามว่า:admin 
สมาชิกคนที่:
เพศ: ชาย
กระทู้:3576 
โพสต์:4596
พลังน้ำใจ:100561 
เงิน:100640 
ความดี:100561 
เครดิต:105157
สิทธิ์อ่าน:200 
สมัครเมื่อ:2015-8-12 
ชมล่าสุด:2019-5-19 
ออนไลน์:2693 
สถานะใช้งาน:ออฟไลน์
เหรียญเกียรติยศ
ประดับยศนักโพสต์ยอดเยี่ยม ประดับยศนักแบ่งปันยอดเยี่ยม ประดับยศนักกิจกรรมยอดเยี่ยม ประดับยศนักเชิญชวนยอดเยี่ยม ประดับยศนักเขียนบทความยอดเยี่ยม ประดับยศนักออกแบบยอดเยี่ยม ประดับยศกิตติมศักดิ์ ประดับยศผู้ให้การสนับสนุน ประดับยศผู้ตั้งโพสต์ ประดับยศผู้ทรงคุณวุฒิ ประดับยศผู้สมัครสมาชิกใหม่ ประดับยศผู้ออนไลน์ต่อเนื่อง ประดับยศนักออนไลน์ยอดเยี่ยม


โพสต์ 2019-3-11 18:52:57 | ดู: 221| ตอบกลับ: 0
[ใหม่สดๆร้อนๆ ชัดมาสเตอร์!] Aquaman (2018) : อควาแมน เจ้าสมุทร [1080p][พากย์ไทยโรง2.0+อังกฤษ5.1][บรรยายไทย+อังกฤษ]

8zy.jpg

https://www.imdb.com/title/tt1477834/   X-Men: Apocalypse(2016) on IMDb
Aquaman จากวอร์เนอร์ บราเธอร์ส พิคเจอร์ส และ ผู้กำกับ เจมส์ วาน สู่ภาพยนตร์แนวแอคชั่นผจญภัยครั้งใหญ่ กับภาพอันชวนตื่นตะลึงจนแทบหยุดหายใจ ในโลกแห่งเจ็ดคาบสมุทร “Aquaman” นำแสดงโดย เจสัน โมมัว ภาพยนตร์เรื่องนี้จะนำคุณไปพบกับที่มาของลูกครึ่งมนุษย์-ครึ่งชาวแอตแลนติส อาเธอร์ เคอร์รี่ และพาไปชมการผจญภัยครั้งสำคัญของชีวิต ที่นอกจากจะบังคับให้เขาต้องเผชิญหน้ากับตัวตนที่แท้จริงของตนเองแล้ว ยังเพื่อให้เขาได้ค้นพบว่าเขาคู่ควรกับสิ่งที่เขาเกิดมาเพื่อเป็นหรือไม่…ในฐานะราชา
Format                      : Matroska
Format version              : Version 4 / Version 2
File size                   : 2.81 GiB
Duration                    : 2h 23mn
Overall bit rate            : 2 802 Kbps
Movie name                  : Aquaman.2018.1080p.WEBRip.x264
Encoded date                : UTC 2019-03-09 10:08:35
Writing application         : mkvmerge v7.2.0 ('On Every Street') 32bit built on Sep 13 2014 15:42:11
Writing library             : libebml v1.3.0 + libmatroska v1.4.1

Video
ID                          : 1
Format                      : AVC
Format/Info                 : Advanced Video Codec
Format profile              : [email protected]
Format settings, CABAC      : Yes
Format settings, ReFrames   : 4 frames
Codec ID                    : V_MPEG4/ISO/AVC
Duration                    : 2h 23mn
Bit rate                    : 2 150 Kbps
Width                       : 1 920 pixels
Height                      : 800 pixels
Display aspect ratio        : 2.40:1
Frame rate mode             : Constant
Frame rate                  : 23.976 (24000/1001) fps
Color space                 : YUV
Chroma subsampling          : 4:2:0
Bit depth                   : 8 bits
Scan type                   : Progressive
Bits/(Pixel*Frame)          : 0.058
Stream size                 : 2.15 GiB (77%)
Title                       : Aquaman.2018.1080p.WEBRip.x264
Writing library             : x264 core 157
Encoding settings           : cabac=1 / ref=4 / deblock=1:-1:-1 / analyse=0x3:0x133 / me=umh / subme=9 / psy=1 / psy_rd=1.00:0.15 / mixed_ref=1 / me_range=24 / chroma_me=1 / trellis=2 / 8x8dct=1 / cqm=0 / deadzone=21,11 / fast_pskip=0 / chroma_qp_offset=-3 / threads=18 / lookahead_threads=1 / sliced_threads=0 / nr=0 / decimate=1 / interlaced=0 / bluray_compat=0 / constrained_intra=0 / bframes=3 / b_pyramid=2 / b_adapt=2 / b_bias=0 / direct=3 / weightb=1 / open_gop=0 / weightp=2 / keyint=250 / keyint_min=23 / scenecut=40 / intra_refresh=0 / rc_lookahead=60 / rc=2pass / mbtree=1 / bitrate=2150 / ratetol=1.0 / qcomp=0.60 / qpmin=0 / qpmax=69 / qpstep=4 / cplxblur=20.0 / qblur=0.5 / vbv_maxrate=31250 / vbv_bufsize=31250 / nal_hrd=none / filler=0 / ip_ratio=1.40 / aq=1:1.00
Language                    : English

Audio 1
ID                          : 2
Format                      : AC-3
Format/Info                 : Audio Coding 3
Mode extension              : CM (complete main)
Format settings, Endianness : Big
Codec ID                    : A_AC3
Duration                    : 2h 22mn
Bit rate mode               : Constant
Bit rate                    : 448 Kbps
Channel(s)                  : 6 channels
Channel positions           : Front: L C R, Side: L R, LFE
Sampling rate               : 48.0 KHz
Frame rate                  : 31.250 fps (1536 spf)
Compression mode            : Lossy
Delay relative to video     : 7s 357ms
Stream size                 : 457 MiB (16%)
Title                       : Thai Rong AC3
Language                    : Thai

Audio 2
ID                          : 3
Format                      : AAC
Format/Info                 : Advanced Audio Codec
Format profile              : LC
Codec ID                    : A_AAC
Duration                    : 2h 23mn
Bit rate                    : 148 Kbps
Channel(s)                  : 2 channels
Channel positions           : Front: L R
Sampling rate               : 48.0 KHz
Frame rate                  : 46.875 fps (1024 spf)
Compression mode            : Lossy
Delay relative to video     : -43ms
Stream size                 : 152 MiB (5%)
Title                       : English AAC
Language                    : English

Text 1
ID                          : 4
Format                      : VobSub
Codec ID                    : S_VOBSUB
Codec ID/Info               : Picture based subtitle format used on DVDs
Duration                    : 2h 23mn
Bit rate                    : 1 648 bps
Count of elements           : 1125
Stream size                 : 1.69 MiB (0%)
Title                       : Thai 480p
Language                    : Thai

Text 2
ID                          : 5
Format                      : VobSub
Codec ID                    : S_VOBSUB
Codec ID/Info               : Picture based subtitle format used on DVDs
Duration                    : 2h 23mn
Bit rate                    : 3 303 bps
Count of elements           : 1125
Stream size                 : 3.38 MiB (0%)
Title                       : Thai 720p
Language                    : Thai

Text 3
ID                          : 6
Format                      : VobSub
Codec ID                    : S_VOBSUB
Codec ID/Info               : Picture based subtitle format used on DVDs
Duration                    : 2h 23mn
Bit rate                    : 4 688 bps
Count of elements           : 1125
Stream size                 : 4.80 MiB (0%)
Title                       : Thai 1080p
Language                    : Thai

Text 4
ID                          : 7
Format                      : VobSub
Codec ID                    : S_VOBSUB
Codec ID/Info               : Picture based subtitle format used on DVDs
Duration                    : 2h 23mn
Bit rate                    : 4 599 bps
Count of elements           : 1125
Stream size                 : 4.71 MiB (0%)
Title                       : Thai 1080p Sarabun
Language                    : Thai

Text 5
ID                          : 8
Format                      : VobSub
Codec ID                    : S_VOBSUB
Codec ID/Info               : Picture based subtitle format used on DVDs
Duration                    : 2h 23mn
Bit rate                    : 5 645 bps
Count of elements           : 1125
Stream size                 : 5.78 MiB (0%)
Title                       : Thai 1080p Yellow
Language                    : Thai

Text 6
ID                          : 9
Format                      : PGS
Codec ID                    : S_HDMV/PGS
Codec ID/Info               : Picture based subtitle format used on BDs/HD-DVDs
Duration                    : 2h 23mn
Bit rate                    : 14.2 Kbps
Count of elements           : 2250
Stream size                 : 14.5 MiB (1%)
Title                       : Thai PGS
Language                    : Thai

Text 7
ID                          : 10
Format                      : PGS
Codec ID                    : S_HDMV/PGS
Codec ID/Info               : Picture based subtitle format used on BDs/HD-DVDs
Duration                    : 2h 15mn
Bit rate                    : 23.8 Kbps
Count of elements           : 2948
Stream size                 : 23.0 MiB (1%)
Title                       : English PGS
Language                    : English

ดาวน์โหลด

ตรวจสอบสถานะ: ต้องซื้อหรือสิทธิไม่เพียงพอ

กลุ่มผู้ใช้ของคุณ: ผู้เยี่ยมชม

ชื่อไฟล์: Aquaman 
ดาวน์โหลด: 2  ขนาดไฟล์: 2.81 GB 
สิทธิ์ในการดาวน์โหลด: VIP  ขึ้นไป หรือ สมาชิก VIP   [ซื้อวีไอพี]   [ซื้อกลุ่ม VIP]




ลิ๊งค์ไฟล์เสียโหลดไม่ได้ติดโดยตรงได้ที่ >>คลิก<<
http://hdfile4you.clubhd4you.net/
ขออภัย! คุณไม่ได้รับสิทธิ์ในการดำเนินการในส่วนนี้ กรุณาเลือกอย่างใดอย่างหนึ่ง ลงชื่อเข้าใช้ | ลงทะเบียน

รายละเอียดเครดิต

ปิด

ประกาศจากทางเว็ป Hdfile4youก่อนหน้า /3 ต่อไป

cornfile.com

ประวัติการแบน|อุปกรณ์พกพา|ข้อความล้วน|โหลดหนัง หนังใหม่ เก่า เพลง โหลดฟรี ดูฟรี Hdfile4you

website counter

GMT+7, 2019-5-23 18:24 , Processed in 0.034647 second(s), 27 queries .

Powered by Discuz! X3.4 R20180101, Rev.59

© 2001-2017 Comsenz Inc.

ตอบกระทู้ ขึ้นไปด้านบน ไปที่หน้ารายการกระทู้