โหลดหนัง Hdfile4you

 ลืมรหัสผ่าน
 ลงทะเบียน
Loading...
ค้นหา
ดู: 278|ตอบกลับ: 0

[ใหม่สดๆร้อนๆ ชัดมาสเตอร์!] Bumblebee (2018) : บัมเบิ้ลบี [1080p][พากย์ไทยโรง5.1+อังกฤษ5.1]

[คัดลอกลิงก์]

 
 ตำเเหน่ง: ผู้ดูแลระบบ

 มีนามว่า:admin 
สมาชิกคนที่:
เพศ: ชาย
กระทู้:3708 
โพสต์:4733
พลังน้ำใจ:100747 
เงิน:100916 
ความดี:100747 
เครดิต:105480
สิทธิ์อ่าน:200 
สมัครเมื่อ:2015-8-12 
ชมล่าสุด:2019-8-14 
ออนไลน์:2780 
สถานะใช้งาน:ออฟไลน์
เหรียญเกียรติยศ
ประดับยศนักโพสต์ยอดเยี่ยม ประดับยศนักแบ่งปันยอดเยี่ยม ประดับยศนักกิจกรรมยอดเยี่ยม ประดับยศนักเชิญชวนยอดเยี่ยม ประดับยศนักเขียนบทความยอดเยี่ยม ประดับยศนักออกแบบยอดเยี่ยม ประดับยศกิตติมศักดิ์ ประดับยศผู้ให้การสนับสนุน ประดับยศผู้ตั้งโพสต์ ประดับยศผู้ทรงคุณวุฒิ ประดับยศผู้สมัครสมาชิกใหม่ ประดับยศผู้ออนไลน์ต่อเนื่อง ประดับยศนักออนไลน์ยอดเยี่ยม


โพสต์ 2019-3-21 19:26:39 | ดู: 278| ตอบกลับ: 0
[ใหม่สดๆร้อนๆ ชัดมาสเตอร์!] Bumblebee (2018) : บัมเบิ้ลบี [1080p][พากย์ไทยโรง5.1+อังกฤษ5.1]

MV5BMjU.jpg

https://www.imdb.com/title/tt4701182/   X-Men: Apocalypse(2016) on IMDb
Bumblebee ย้อนกลับไปในปี 1987 บัมเบิ้ลบีค้นพบที่หลบภัยอยู่ในพื้นที่เก็บของเก่าในเมืองริมชายหาดเล็ก ๆ ในรัฐแคลิฟอร์เนีย โดยที่ชาร์ลี (เฮลีย์ สไตน์เฟลด์) สาวที่กำลังจะมีอายุครบ 18 ปี ค้นพบบัมเบี้ลบี ในสภาพรถโฟล์กสวาเกนสีเหลืองที่ผุพัง ผ่านศึกมาหนัก และในไม่ช้า เธอก็รู้ว่าบัมเบิ้ลบีไม่ใช่แค่รถเต่าธรรมดาเลย
Format                      : Matroska
Format version              : Version 4
File size                   : 4.75 GiB
Duration                    : 1 h 54 min
Overall bit rate            : 5 950 kb/s
Movie name                  : [email protected]

Video
ID                          : 1
Format                      : AVC
Format/Info                 : Advanced Video Codec
Format profile              : [email protected]
Format settings             : CABAC / 4 Ref Frames
Format settings, CABAC      : Yes
Format settings, ReFrames   : 4 frames
Codec ID                    : V_MPEG4/ISO/AVC
Duration                    : 1 h 54 min
Bit rate                    : 5 119 kb/s
Width                       : 1 912 pixels
Height                      : 1 072 pixels
Display aspect ratio        : 16:9
Frame rate mode             : Constant
Frame rate                  : 23.976 FPS
Color space                 : YUV
Chroma subsampling          : 4:2:0
Bit depth                   : 8 bits
Scan type                   : Progressive
Bits/(Pixel*Frame)          : 0.104
Stream size                 : 4.09 GiB (86%)
Title                       : [email protected]
Language                    : English
Default                     : Yes
Forced                      : No
Color range                 : Limited
Color primaries             : BT.709
Transfer characteristics    : BT.709
Matrix coefficients         : BT.709

Audio 1
ID                          : 2
Format                      : AC-3
Format/Info                 : Audio Coding 3
Commercial name             : Dolby Digital
Codec ID                    : A_AC3
Duration                    : 1 h 53 min
Bit rate mode               : Constant
Bit rate                    : 448 kb/s
Channel(s)                  : 6 channels
Channel layout              : L R C LFE Ls Rs
Sampling rate               : 48.0 kHz
Frame rate                  : 31.250 FPS (1536 SPF)
Bit depth                   : 16 bits
Compression mode            : Lossy
Stream size                 : 365 MiB (7%)
Title                       : ThaiRong 5.1 @ 448 kb/s By [email protected]
Language                    : Thai
Service kind                : Complete Main
Default                     : Yes
Forced                      : Yes

Audio 2
ID                          : 3
Format                      : AC-3
Format/Info                 : Audio Coding 3
Commercial name             : Dolby Digital
Codec ID                    : A_AC3
Duration                    : 1 h 53 min
Bit rate mode               : Constant
Bit rate                    : 384 kb/s
Channel(s)                  : 6 channels
Channel layout              : L R C LFE Ls Rs
Sampling rate               : 48.0 kHz
Frame rate                  : 31.250 FPS (1536 SPF)
Bit depth                   : 16 bits
Compression mode            : Lossy
Stream size                 : 313 MiB (6%)
Title                       : English DD5.1 @ 384 kb/s
Language                    : English
Service kind                : Complete Main
Default                     : No
Forced                      : No

ดาวน์โหลด

ตรวจสอบสถานะ: ต้องซื้อหรือสิทธิไม่เพียงพอ

กลุ่มผู้ใช้ของคุณ: ผู้เยี่ยมชม

ชื่อไฟล์: Bumblebee 
ดาวน์โหลด: 5  ขนาดไฟล์: 4 GB 
สิทธิ์ในการดาวน์โหลด: VIP  ขึ้นไป หรือ สมาชิก VIP   [ซื้อวีไอพี]   [ซื้อกลุ่ม VIP]




ลิ๊งค์ไฟล์เสียโหลดไม่ได้ติดโดยตรงได้ที่ >>คลิก<<
http://hdfile4you.clubhd4you.net/
ขออภัย! คุณไม่ได้รับสิทธิ์ในการดำเนินการในส่วนนี้ กรุณาเลือกอย่างใดอย่างหนึ่ง ลงชื่อเข้าใช้ | ลงทะเบียน

รายละเอียดเครดิต

ปิด

ประกาศจากทางเว็ป Hdfile4youก่อนหน้า /3 ต่อไป

cornfile.com

ประวัติการแบน|อุปกรณ์พกพา|ข้อความล้วน|โหลดหนัง หนังใหม่ เก่า เพลง โหลดฟรี ดูฟรี Hdfile4you

GMT+7, 2019-8-23 23:13 , Processed in 0.069875 second(s), 27 queries .

Powered by Discuz! X3.4 R20180101, Rev.59

© 2001-2017 Comsenz Inc.

ตอบกระทู้ ขึ้นไปด้านบน ไปที่หน้ารายการกระทู้