โหลดหนัง Hdfile4you

 ลืมรหัสผ่าน
 ลงทะเบียน
ค้นหา
ดู: 785|ตอบกลับ: 1

[SuperHQ] Megamind (2010) : เมกะมายด์ จอมวายร้ายพิทักษ์โลก [1080p][พากย์ไทย5.1+อังกฤษ5.1][บรรยายไทย+อังกฤษ]

[คัดลอกลิงก์]

 
 ตำเเหน่ง: ผู้ดูแลระบบ

 มีนามว่า:hdfile4you 
สมาชิกคนที่:
เพศ ไม่ระบุ:
กระทู้:168 
โพสต์:170
พลังน้ำใจ:210 
เงิน:276 
ความดี:220 
เครดิต:380
สิทธิ์อ่าน:200 
สมัครเมื่อ:2015-8-16 
ชมล่าสุด:2019-4-18 
ออนไลน์:65 
สถานะใช้งาน:ออฟไลน์
เหรียญเกียรติยศ
ประดับยศนักโพสต์ยอดเยี่ยม ประดับยศนักออนไลน์ยอดเยี่ยม ประดับยศนักแบ่งปันยอดเยี่ยม ประดับยศนักกิจกรรมยอดเยี่ยม ประดับยศนักเชิญชวนยอดเยี่ยม ประดับยศนักเขียนบทความยอดเยี่ยม ประดับยศนักออกแบบยอดเยี่ยม ประดับยศกิตติมศักดิ์ ประดับยศผู้ให้การสนับสนุน ประดับยศผู้ทรงคุณวุฒิ ประดับยศผู้สมัครสมาชิกใหม่ ประดับยศผู้ตั้งโพสต์ ประดับยศผู้ออนไลน์ต่อเนื่อง ประดับยศผู้ร่วมบริจากช่วยเหลือเว็บ


โพสต์ 2019-3-31 11:35:54 | ดู: 785| ตอบกลับ: 1
[SuperHQ] Megamind (2010) : เมกะมายด์ จอมวายร้ายพิทักษ์โลก [1080p][พากย์ไทย5.1+อังกฤษ5.1][บรรยายไทย+อังกฤษ]

225536lell97leakag7hhw.jpg

https://www.imdb.com/title/tt1001526/  7.3/10205,222 votes
Megamind is the most brilliant super-villain the world has ever known... and the least successful. Over the years, he has tried to conquer Metro City in every imaginable way. Each attempt, a colossal failure thanks to the caped superhero known as "Metro Man," until the day Megamind actually defeats him in the throes of one of his botched evil plans. Suddenly, the fate of Metro City is threatened when a new villain arrives and chaos runs rampant, leaving everyone to wonder: Can the world s biggest "mind" actually be the one to save the day.
General
Unique ID                                : 242780542054244072970680999639326536042 (0xB6A5D4E2CCA1B5498CE45ED11C22316A)
Complete name                            : D:\อัพหนัง\Megamind.2010.1080p.BrRip.DD5.1.x264_hdfile4you.clubhd4you.net.mkv
Format                                   : Matroska
Format version                           : Version 4 / Version 2
File size                                : 4.83 GiB
Duration                                 : 1h 35mn
Overall bit rate                         : 7 240 Kbps
Movie name                               : Megamind.2010.1080p.BrRip.DD5.1.x264_hdfile4you.clubhd4you.net
Encoded date                             : UTC 2019-03-31 01:29:41
Writing application                      : mkvmerge v32.0.0 ('Astral Progressions') 64-bit
Writing library                          : libebml v1.3.7 + libmatroska v1.5.0
DURATION                                 : 01:28:03.320000000
NUMBER_OF_FRAMES                         : 1255
NUMBER_OF_BYTES                          : 45562
_STATISTICS_WRITING_APP                  : mkvmerge v32.0.0 ('Astral Progressions') 64-bit
_STATISTICS_WRITING_DATE_UTC             : 2019-03-31 01:29:41
_STATISTICS_TAGS                         : BPS DURATION NUMBER_OF_FRAMES NUMBER_OF_BYTES

Video
ID                                       : 1
Format                                   : AVC
Format/Info                              : Advanced Video Codec
Format profile                           : [email protected]
Format settings, CABAC                   : Yes
Format settings, ReFrames                : 5 frames
Codec ID                                 : V_MPEG4/ISO/AVC
Duration                                 : 1h 35mn
Bit rate                                 : 5 905 Kbps
Width                                    : 1 920 pixels
Height                                   : 816 pixels
Display aspect ratio                     : 2.35:1
Frame rate mode                          : Constant
Frame rate                               : 23.976 fps
Color space                              : YUV
Chroma subsampling                       : 4:2:0
Bit depth                                : 8 bits
Scan type                                : Progressive
Bits/(Pixel*Frame)                       : 0.157
Stream size                              : 3.88 GiB (80%)
Title                                    : Megamind.2010.1080p.BrRip.DD5.1.x264_hdfile4you.clubhd4you.net
Writing library                          : x264 core 115 r1937 aa21558
Encoding settings                        : cabac=1 / ref=5 / deblock=1:0:0 / analyse=0x3:0x133 / me=umh / subme=10 / psy=1 / psy_rd=1.00:0.00 / mixed_ref=1 / me_range=24 / chroma_me=1 / trellis=2 / 8x8dct=1 / cqm=0 / deadzone=21,11 / fast_pskip=0 / chroma_qp_offset=-2 / threads=12 / sliced_threads=0 / nr=0 / decimate=1 / interlaced=0 / bluray_compat=0 / constrained_intra=0 / bframes=3 / b_pyramid=2 / b_adapt=2 / b_bias=0 / direct=3 / weightb=1 / open_gop=0 / weightp=2 / keyint=250 / keyint_min=23 / scenecut=40 / intra_refresh=0 / rc_lookahead=60 / rc=2pass / mbtree=1 / bitrate=5905 / ratetol=1.0 / qcomp=0.60 / qpmin=0 / qpmax=69 / qpstep=4 / cplxblur=20.0 / qblur=0.5 / ip_ratio=1.40 / aq=1:1.00
Language                                 : English
Default                                  : Yes
Forced                                   : No

Audio #1
ID                                       : 2
Format                                   : AC-3
Format/Info                              : Audio Coding 3
Mode extension                           : CM (complete main)
Format settings, Endianness              : Big
Codec ID                                 : A_AC3
Duration                                 : 1h 35mn
Bit rate mode                            : Constant
Bit rate                                 : 640 Kbps
Channel(s)                               : 6 channels
Channel positions                        : Front: L C R, Side: L R, LFE
Sampling rate                            : 48.0 KHz
Bit depth                                : 16 bits
Compression mode                         : Lossy
Stream size                              : 438 MiB (9%)
Title                                    : Thai Master 5.1 By_hdfile4you.clubhd4you.net
Language                                 : Thai
Default                                  : Yes
Forced                                   : Yes

Audio #2
ID                                       : 3
Format                                   : AC-3
Format/Info                              : Audio Coding 3
Mode extension                           : CM (complete main)
Format settings, Endianness              : Big
Codec ID                                 : A_AC3
Duration                                 : 1h 35mn
Bit rate mode                            : Constant
Bit rate                                 : 640 Kbps
Channel(s)                               : 6 channels
Channel positions                        : Front: L C R, Side: L R, LFE
Sampling rate                            : 48.0 KHz
Bit depth                                : 16 bits
Compression mode                         : Lossy
Stream size                              : 438 MiB (9%)
Title                                    : English 5.1 By_hdfile4you.clubhd4you.net
Language                                 : English
Default                                  : No
Forced                                   : No

Text #1
ID                                       : 4
Format                                   : VobSub
Muxing mode                              : zlib
Codec ID                                 : S_VOBSUB
Codec ID/Info                            : The same subtitle format used on DVDs
Title                                    : Thai
Language                                 : Thai
Default                                  : No
Forced                                   : No

Text #2
ID                                       : 5
Format                                   : VobSub
Muxing mode                              : zlib
Codec ID                                 : S_VOBSUB
Codec ID/Info                            : The same subtitle format used on DVDs
Title                                    : Thai
Language                                 : Thai
Default                                  : No
Forced                                   : No

Text #3
ID                                       : 6
Format                                   : PGS
Muxing mode                              : zlib
Codec ID                                 : S_HDMV/PGS
Codec ID/Info                            : The same subtitle format used on BDs/HD-DVDs
Title                                    : Thai PGS
Language                                 : Thai
Default                                  : Yes
Forced                                   : Yes

Text #4
ID                                       : 7
Format                                   : UTF-8
Codec ID                                 : S_TEXT/UTF8
Codec ID/Info                            : UTF-8 Plain Text
Title                                    : English
Language                                 : English
Default                                  : No
Forced                                   : No
1 GB / PART
Download (ไม่อัพโหลด Google Drive แทน)

ลิ๊งเดียวจบ
*** ถ้าโหลดไม่ได้แสดงว่าติด Limit ต้องรอพรุ่งนี้เพราะคนโหลดเยอะนะครับ ***
ลิ๊งเดียวจบ
PASS : http://hdfile4you.clubhd4you.net/
*** ถ้าโหลดไม่ได้แสดงว่าติด Limit ต้องรอพรุ่งนี้เพราะคนโหลดเยอะนะครับ ***
SuperHQ 1080p
Download
SuperHQ 1080p


ตั้งชื่อไฟล์ตามแบบนี้เท่านั้น
1.Megamind.part1.rar
2.Megamind.part2.rar
3.Megamind.part3.rar
4.Megamind.part4.rar

ปล.  -- Winrar ใส่ Recovery Record 5% ทุกไฟล์ครับ --



 
 ตำเเหน่ง: Beginner

 มีนามว่า:boydmlion 
สมาชิกคนที่:2878 
เพศ ไม่ระบุ:
กระทู้:
โพสต์:12
พลังน้ำใจ:33 
เงิน:68 
ความดี:33 
เครดิต:45
สิทธิ์อ่าน:10 
สมัครเมื่อ:2019-1-12 
ชมล่าสุด:2019-4-17 
ออนไลน์:36 
สถานะใช้งาน:ออฟไลน์
คุณยังไม่ได้ใช้เหรียญ
กรุณาคลิกที่นี่เพื่อใช้เหรียญ


โพสต์ 2019-4-1 13:03:31
ขอบคุณครับ
ขออภัย! คุณไม่ได้รับสิทธิ์ในการดำเนินการในส่วนนี้ กรุณาเลือกอย่างใดอย่างหนึ่ง ลงชื่อเข้าใช้ | ลงทะเบียน

รายละเอียดเครดิต

ปิด

ประกาศจากทางเว็ป Hdfile4youก่อนหน้า /3 ต่อไป

cornfile.com

ประวัติการแบน|อุปกรณ์พกพา|ข้อความล้วน|โหลดหนัง หนังใหม่ เก่า เพลง โหลดฟรี ดูฟรี Hdfile4you

website counter

GMT+7, 2019-4-19 04:06 , Processed in 0.046013 second(s), 33 queries .

Powered by Discuz! X3.4 R20180101, Rev.59

© 2001-2017 Comsenz Inc.

ตอบกระทู้ ขึ้นไปด้านบน ไปที่หน้ารายการกระทู้