โหลดหนัง Hdfile4you

 ลืมรหัสผ่าน
 ลงทะเบียน
ค้นหา
ดู: 91|ตอบกลับ: 0

[MiniHQ] The Town (2010) Extended Cut : ปล้นสะท้านเมือง [1080p][พากย์ไทย5.1+อังกฤษDTS][บรรยายไทย+อังกฤษ]

[คัดลอกลิงก์]

 
 ตำเเหน่ง: ผู้ดูแลระบบ

 มีนามว่า:admin 
สมาชิกคนที่:
เพศ: ชาย
กระทู้:3623 
โพสต์:4647
พลังน้ำใจ:100629 
เงิน:100734 
ความดี:100629 
เครดิต:105276
สิทธิ์อ่าน:200 
สมัครเมื่อ:2015-8-12 
ชมล่าสุด:2019-6-17 
ออนไลน์:2727 
สถานะใช้งาน:ออฟไลน์
เหรียญเกียรติยศ
ประดับยศนักโพสต์ยอดเยี่ยม ประดับยศนักแบ่งปันยอดเยี่ยม ประดับยศนักกิจกรรมยอดเยี่ยม ประดับยศนักเชิญชวนยอดเยี่ยม ประดับยศนักเขียนบทความยอดเยี่ยม ประดับยศนักออกแบบยอดเยี่ยม ประดับยศกิตติมศักดิ์ ประดับยศผู้ให้การสนับสนุน ประดับยศผู้ตั้งโพสต์ ประดับยศผู้ทรงคุณวุฒิ ประดับยศผู้สมัครสมาชิกใหม่ ประดับยศผู้ออนไลน์ต่อเนื่อง ประดับยศนักออนไลน์ยอดเยี่ยม


โพสต์ 2019-4-13 17:51:09 | ดู: 91| ตอบกลับ: 0
[MiniHQ] The Town (2010) Extended Cut : ปล้นสะท้านเมือง [1080p][พากย์ไทย5.1+อังกฤษDTS][บรรยายไทย+อังกฤษ]

38891_front.jpg

https://www.imdb.com/title/tt0840361/   X-Men: Apocalypse(2016) on IMDb
เบน แอฟเฟล็ก กำกับงานชิ้นที่ 2 ในบทดั๊ก โจรปล้นธนาคารมือฉกาจที่มั่นใจในฝีมือ และไม่เคยห่วงชีวิตใคร จนงานชิ้นหลังสุดที่เขาได้จับแคลร์ พนักงานธนาคารสาวเป็นตัวประกันก่อนปล่อยเธอไป แคลร์มีชีวิตอยู่อย่างหวาดวิตกจนเมื่อได้พบชายที่อบอุ่นคนหนึ่งที่ทำให้เธอรู้สึกสบายใจ แต่หารู้ไม่ว่าเขาคือดั๊ก โจรร้ายที่เคยจับเธอไป และความรักของคนทั้งสองทำให้พวกเขาต้องเสี่ยงอันตรายมากยิ่งขึ้น
Format                         : Matroska
Format version                 : Version 2
File size                      : 4.50 GiB
Duration                       : 2h 30mn
Overall bit rate               : 4 285 Kbps
Movie name                     : The.Town.Extended.2010.1080p.HQ.DTS.BrRip.x264
Encoded date                   : UTC 2016-03-18 15:38:33
Writing application            : mkvmerge v5.0.1 ( Es ist Sommer ) built on Oct  9 2011 11:55:43
Writing library                : libebml v1.2.2 + libmatroska v1.3.0

Video
ID                             : 1
Format                         : AVC
Format/Info                    : Advanced Video Codec
Format profile                 : [email protected]
Format settings, CABAC         : Yes
Format settings, ReFrames      : 5 frames
Muxing mode                    : Header stripping
Codec ID                       : V_MPEG4/ISO/AVC
Duration                       : 2h 30mn
Bit rate                       : 3 032 Kbps
Width                          : 1 920 pixels
Height                         : 800 pixels
Display aspect ratio           : 2.40:1
Frame rate                     : 23.976 fps
Color space                    : YUV
Chroma subsampling             : 4:2:0
Bit depth                      : 8 bits
Scan type                      : Progressive
Bits/(Pixel*Frame)             : 0.082
Stream size                    : 3.15 GiB (70%)
Title                          : The.Town.Extended.2010.1080p.HQ.DTS.BrRip.x264
Writing library                : x264 core 144 r2525 40bb568
Encoding settings              : cabac=1 / ref=5 / deblock=1:1:1 / analyse=0x3:0x113 / me=umh / subme=10 / psy=1 / psy_rd=1.00:0.00 / mixed_ref=1 / me_range=24 / chroma_me=1 / trellis=2 / 8x8dct=1 / cqm=0 / deadzone=21,11 / fast_pskip=1 / chroma_qp_offset=-4 / threads=6 / lookahead_threads=1 / sliced_threads=0 / nr=0 / decimate=1 / interlaced=0 / bluray_compat=0 / constrained_intra=0 / bframes=5 / b_pyramid=2 / b_adapt=1 / b_bias=0 / direct=3 / weightb=1 / open_gop=0 / weightp=2 / keyint=250 / keyint_min=23 / scenecut=40 / intra_refresh=0 / rc_lookahead=40 / rc=2pass / mbtree=1 / bitrate=3032 / ratetol=1.0 / qcomp=0.60 / qpmin=0 / qpmax=69 / qpstep=4 / cplxblur=20.0 / qblur=0.5 / vbv_maxrate=14000 / vbv_bufsize=14000 / nal_hrd=none / filler=0 / ip_ratio=1.40 / aq=1:1.00
Language                       : English
Default                        : Yes
Forced                         : No

Audio #1
ID                             : 2
Format                         : AC-3
Format/Info                    : Audio Coding 3
Mode extension                 : CM (complete main)
Muxing mode                    : Header stripping
Codec ID                       : A_AC3
Duration                       : 2h 30mn
Bit rate mode                  : Constant
Bit rate                       : 448 Kbps
Channel(s)                     : 6 channels
Channel positions              : Front: L C R, Side: L R, LFE
Sampling rate                  : 48.0 KHz
Bit depth                      : 16 bits
Compression mode               : Lossy
Stream size                    : 481 MiB (10%)
Title                          : THAI Master 5.1 @ 448 Kbps
Language                       : Thai
Default                        : Yes
Forced                         : Yes

Audio #2
ID                             : 3
Format                         : DTS
Format/Info                    : Digital Theater Systems
Muxing mode                    : Header stripping
Codec ID                       : A_DTS
Duration                       : 2h 30mn
Bit rate mode                  : Constant
Bit rate                       : 755 Kbps
Channel(s)                     : 6 channels
Channel positions              : Front: L C R, Side: L R, LFE
Sampling rate                  : 48.0 KHz
Bit depth                      : 24 bits
Compression mode               : Lossy
Delay relative to video        : 8ms
Stream size                    : 811 MiB (18%)
Title                          : ENG DTS 5.1 @ 755 Kbps
Language                       : English
Default                        : No
Forced                         : No

Text #1
ID                             : 4
Format                         : VobSub
Muxing mode                    : zlib
Codec ID                       : S_VOBSUB
Codec ID/Info                  : The same subtitle format used on DVDs
Title                          : THAI 1080p Bluray Master
Language                       : Thai
Default                        : Yes
Forced                         : Yes

Text #2
ID                             : 5
Format                         : VobSub
Muxing mode                    : zlib
Codec ID                       : S_VOBSUB
Codec ID/Info                  : The same subtitle format used on DVDs
Title                          : THAI 1080p Yellow
Language                       : Thai
Default                        : No
Forced                         : No

Text #3
ID                             : 6
Format                         : VobSub
Muxing mode                    : zlib
Codec ID                       : S_VOBSUB
Codec ID/Info                  : The same subtitle format used on DVDs
Title                          : THAI 1080p Out
Language                       : Thai
Default                        : No
Forced                         : No

Text #4
ID                             : 7
Format                         : PGS
Muxing mode                    : zlib
Codec ID                       : S_HDMV/PGS
Codec ID/Info                  : The same subtitle format used on BDs/HD-DVDs
Title                          : THAI PGS 1080p Bluray Master
Language                       : Thai
Default                        : No
Forced                         : No

Text #5
ID                             : 8
Format                         : PGS
Muxing mode                    : zlib
Codec ID                       : S_HDMV/PGS
Codec ID/Info                  : The same subtitle format used on BDs/HD-DVDs
Title                          : THAI PGS 1080p Bluray Master Out
Language                       : Thai
Default                        : No
Forced                         : No

Text #6
ID                             : 9
Format                         : PGS
Muxing mode                    : zlib
Codec ID                       : S_HDMV/PGS
Codec ID/Info                  : The same subtitle format used on BDs/HD-DVDs
Title                          : ENG PGS 1080p Bluray Master
Language                       : English
Default                        : No
Forced                         : No

ดาวน์โหลด

ตรวจสอบสถานะ: ต้องซื้อหรือสิทธิไม่เพียงพอ

กลุ่มผู้ใช้ของคุณ: ผู้เยี่ยมชม

ชื่อไฟล์: The Town 
ดาวน์โหลด: 3  ขนาดไฟล์: 4 GB 
สิทธิ์ในการดาวน์โหลด: VIP  ขึ้นไป หรือ สมาชิก VIP   [ซื้อวีไอพี]   [ซื้อกลุ่ม VIP]




ลิ๊งค์ไฟล์เสียโหลดไม่ได้ติดโดยตรงได้ที่ >>คลิก<<
http://hdfile4you.clubhd4you.net/
ขออภัย! คุณไม่ได้รับสิทธิ์ในการดำเนินการในส่วนนี้ กรุณาเลือกอย่างใดอย่างหนึ่ง ลงชื่อเข้าใช้ | ลงทะเบียน

รายละเอียดเครดิต

ปิด

ประกาศจากทางเว็ป Hdfile4youก่อนหน้า /3 ต่อไป

cornfile.com

ประวัติการแบน|อุปกรณ์พกพา|ข้อความล้วน|โหลดหนัง หนังใหม่ เก่า เพลง โหลดฟรี ดูฟรี Hdfile4you

GMT+7, 2019-6-18 01:50 , Processed in 0.045941 second(s), 27 queries .

Powered by Discuz! X3.4, Rev.60 Beta 3

© 2001-2019 Comsenz Inc.

ตอบกระทู้ ขึ้นไปด้านบน ไปที่หน้ารายการกระทู้