โหลดหนัง Hdfile4you

 ลืมรหัสผ่าน
 ลงทะเบียน
Loading...
ค้นหา
ดู: 42|ตอบกลับ: 0

[SuperHQ กระทึมด้วยTHAI-DTS] Gods of Egypt (2016) : สงครามเทวดา [1080p][พากย์ไทยDTS+อังกฤษDTS][บรรยายไทย+อังกฤษ]

[คัดลอกลิงก์]

 
 ตำเเหน่ง: ผู้ดูแลระบบ

 มีนามว่า:admin 
สมาชิกคนที่:
เพศ: ชาย
กระทู้:3530 
โพสต์:4550
พลังน้ำใจ:100500 
เงิน:100552 
ความดี:100500 
เครดิต:105050
สิทธิ์อ่าน:200 
สมัครเมื่อ:2015-8-12 
ชมล่าสุด:2019-4-18 
ออนไลน์:2673 
สถานะใช้งาน:ออฟไลน์
เหรียญเกียรติยศ
ประดับยศนักโพสต์ยอดเยี่ยม ประดับยศนักแบ่งปันยอดเยี่ยม ประดับยศนักกิจกรรมยอดเยี่ยม ประดับยศนักเชิญชวนยอดเยี่ยม ประดับยศนักเขียนบทความยอดเยี่ยม ประดับยศนักออกแบบยอดเยี่ยม ประดับยศกิตติมศักดิ์ ประดับยศผู้ให้การสนับสนุน ประดับยศผู้ตั้งโพสต์ ประดับยศผู้ทรงคุณวุฒิ ประดับยศผู้สมัครสมาชิกใหม่ ประดับยศผู้ออนไลน์ต่อเนื่อง ประดับยศนักออนไลน์ยอดเยี่ยม


โพสต์ 5 วันที่แล้ว | ดู: 42| ตอบกลับ: 0
[SuperHQ กระทึมด้วยTHAI-DTS] Gods of Egypt (2016) : สงครามเทวดา [1080p][พากย์ไทยDTS+อังกฤษDTS][บรรยายไทย+อังกฤษ]

235557hwwm5wrx5p85rp56ss.jpg

http://www.imdb.com/title/tt2404233/   X-Men: Apocalypse(2016) on IMDb
สร้างจากตำนานปรัมปราของเทพเจ้าแห่งอียิปต์ เทพเจ้า 'เซท' (เจอราร์ด บัตเลอร์) เทพแห่งความมืดมิดและชั่วร้ายได้สร้างวิกฤตการณ์สู่บัลลังก์ราชาแห่งลุ่มแม่น้ำไนล์ จนเกิดความปั่นป่วนไปทั่วแผ่นดินนองไปด้วยเลือด ร้อนถึงมือของเทพเจ้าแห่งพลัง 'ฮอรัส' ที่ส่งตัวแทนเป็นมนุษย์นักรบหนุ่มนามว่า 'เบค' (เบรนตัน ธเวทส์) ซึ่งต้องเข้ารับการทดสอบความกล้าหาญและวิญญาณนักรบในตัว เพื่อเผชิญหน้ากับกองทัพปีศาจของเทพแห่งความมืด หวังส่งร่างและวิญญาณของเซธกลับคืนสู่โลกหลังความตาย ก่อเกิดเป็นสงครามแห่งเวทย์มนตร์และอสุรกาย สั่นสะเทือนทั้งโลกสวรรค์และโลกมนุษย์ยิ่งใหญ่เหนือจินตนาการ
General
Unique ID                                : 249720577885808158089261405949100842895 (0xBBDE6F11F916D9501BA598246AD85F8F)
Complete name                            : D:\อัพหนัง\MoFile\Gods.of.Egypt.2016.1080p.BrRip.THAIDTS.x264_hdfile4you.clubhd4you.net.mkv
Format                                   : Matroska
Format version                           : Version 4 / Version 2
File size                                : 4.21 GiB
Duration                                 : 2h 7mn
Overall bit rate                         : 4 742 Kbps
Movie name                               : Gods.of.Egypt.2016.1080p.BrRip.THAIDTS.x264_hdfile4you.clubhd4you.net
Encoded date                             : UTC 2019-04-10 13:08:49
Writing application                      : mkvmerge v32.0.0 ('Astral Progressions') 64-bit
Writing library                          : libebml v1.3.7 + libmatroska v1.5.0
DURATION                                 : 01:55:28.755000000
NUMBER_OF_FRAMES                         : 2452
NUMBER_OF_BYTES                          : 25177266
_STATISTICS_WRITING_APP                  : mkvmerge v32.0.0 ('Astral Progressions') 64-bit
_STATISTICS_WRITING_DATE_UTC             : 2019-04-10 13:08:49
_STATISTICS_TAGS                         : BPS DURATION NUMBER_OF_FRAMES NUMBER_OF_BYTES

Video
ID                                       : 1
Format                                   : AVC
Format/Info                              : Advanced Video Codec
Format profile                           : [email protected]
Format settings, CABAC                   : Yes
Format settings, ReFrames                : 4 frames
Codec ID                                 : V_MPEG4/ISO/AVC
Duration                                 : 2h 7mn
Bit rate                                 : 3 181 Kbps
Width                                    : 1 920 pixels
Height                                   : 800 pixels
Display aspect ratio                     : 2.40:1
Frame rate mode                          : Constant
Frame rate                               : 23.976 fps
Color space                              : YUV
Chroma subsampling                       : 4:2:0
Bit depth                                : 8 bits
Scan type                                : Progressive
Bits/(Pixel*Frame)                       : 0.086
Stream size                              : 2.77 GiB (66%)
Title                                    : Gods.of.Egypt.2016.1080p.BrRip.THAIDTS.x264_hdfile4you.clubhd4you.net
Writing library                          : x264 core 146 r2538 121396c
Encoding settings                        : cabac=1 / ref=4 / deblock=1:-3:-3 / analyse=0x3:0x113 / me=umh / subme=11 / psy=1 / psy_rd=1.00:0.00 / mixed_ref=1 / me_range=64 / chroma_me=1 / trellis=2 / 8x8dct=1 / cqm=0 / deadzone=21,11 / fast_pskip=0 / chroma_qp_offset=-2 / threads=6 / lookahead_threads=1 / sliced_threads=0 / nr=0 / decimate=1 / interlaced=0 / bluray_compat=0 / constrained_intra=0 / bframes=4 / b_pyramid=2 / b_adapt=2 / b_bias=0 / direct=3 / weightb=1 / open_gop=0 / weightp=2 / keyint=250 / keyint_min=23 / scenecut=40 / intra_refresh=0 / rc_lookahead=120 / rc=2pass / mbtree=1 / bitrate=3181 / ratetol=1.0 / qcomp=0.60 / qpmin=0 / qpmax=69 / qpstep=4 / cplxblur=20.0 / qblur=0.5 / vbv_maxrate=99999 / vbv_bufsize=99999 / nal_hrd=none / filler=0 / ip_ratio=1.40 / aq=1:1.00
Language                                 : English
Default                                  : Yes
Forced                                   : Yes

Audio #1
ID                                       : 2
Format                                   : DTS
Format/Info                              : Digital Theater Systems
Mode                                     : 16
Format settings, Endianness              : Big
Codec ID                                 : A_DTS
Duration                                 : 2h 7mn
Bit rate mode                            : Constant
Bit rate                                 : 768 Kbps
Channel(s)                               : 6 channels
Channel positions                        : Front: L C R, Side: L R, LFE
Sampling rate                            : 48.0 KHz
Bit depth                                : 24 bits
Compression mode                         : Lossy
Stream size                              : 698 MiB (16%)
Title                                    : Thai DTS BY_hdfile4you.clubhd4you.net
Language                                 : Thai
Default                                  : Yes
Forced                                   : Yes

Audio #2
ID                                       : 3
Format                                   : DTS
Format/Info                              : Digital Theater Systems
Mode                                     : 16
Format settings, Endianness              : Big
Codec ID                                 : A_DTS
Duration                                 : 2h 7mn
Bit rate mode                            : Constant
Bit rate                                 : 755 Kbps
Channel(s)                               : 6 channels
Channel positions                        : Front: L C R, Side: L R, LFE
Sampling rate                            : 48.0 KHz
Bit depth                                : 24 bits
Compression mode                         : Lossy
Stream size                              : 686 MiB (16%)
Title                                    : English DTS BY_hdfile4you.clubhd4you.net
Language                                 : English
Default                                  : No
Forced                                   : No

Text #1
ID                                       : 4
Format                                   : VobSub
Muxing mode                              : zlib
Codec ID                                 : S_VOBSUB
Codec ID/Info                            : The same subtitle format used on DVDs
Title                                    : Thai 1080P BY_hdfile4you
Language                                 : Thai
Default                                  : No
Forced                                   : No

Text #2
ID                                       : 5
Format                                   : PGS
Muxing mode                              : zlib
Codec ID                                 : S_HDMV/PGS
Codec ID/Info                            : The same subtitle format used on BDs/HD-DVDs
Title                                    : Thai BY_hdfile4you
Language                                 : Thai
Default                                  : Yes
Forced                                   : Yes

Text #3
ID                                       : 6
Format                                   : PGS
Muxing mode                              : zlib
Codec ID                                 : S_HDMV/PGS
Codec ID/Info                            : The same subtitle format used on BDs/HD-DVDs
Title                                    : Thai UNDER BY_hdfile4you
Language                                 : Thai
Default                                  : No
Forced                                   : No

Text #4
ID                                       : 7
Format                                   : PGS
Muxing mode                              : zlib
Codec ID                                 : S_HDMV/PGS
Codec ID/Info                            : The same subtitle format used on BDs/HD-DVDs
Title                                    : Eng BY_hdfile4you
Language                                 : English
Default                                  : No
Forced                                   : No

ดาวน์โหลด

ตรวจสอบสถานะ: ต้องซื้อหรือสิทธิไม่เพียงพอ

กลุ่มผู้ใช้ของคุณ: ผู้เยี่ยมชม

ชื่อไฟล์: Gods of Egypt THAI DTS 
ดาวน์โหลด: 3  ขนาดไฟล์: 4 GB 
สิทธิ์ในการดาวน์โหลด: VIP  ขึ้นไป หรือ สมาชิก VIP   [ซื้อวีไอพี]   [ซื้อกลุ่ม VIP]




ลิ๊งค์ไฟล์เสียโหลดไม่ได้ติดโดยตรงได้ที่ >>คลิก<<
http://hdfile4you.clubhd4you.net/
ขออภัย! คุณไม่ได้รับสิทธิ์ในการดำเนินการในส่วนนี้ กรุณาเลือกอย่างใดอย่างหนึ่ง ลงชื่อเข้าใช้ | ลงทะเบียน

รายละเอียดเครดิต

ปิด

ประกาศจากทางเว็ป Hdfile4youก่อนหน้า /3 ต่อไป

cornfile.com

ประวัติการแบน|อุปกรณ์พกพา|ข้อความล้วน|โหลดหนัง หนังใหม่ เก่า เพลง โหลดฟรี ดูฟรี Hdfile4you

website counter

GMT+7, 2019-4-19 04:01 , Processed in 0.050522 second(s), 27 queries .

Powered by Discuz! X3.4 R20180101, Rev.59

© 2001-2017 Comsenz Inc.

ตอบกระทู้ ขึ้นไปด้านบน ไปที่หน้ารายการกระทู้