โหลดหนัง Hdfile4you

 ลืมรหัสผ่าน
 ลงทะเบียน
Loading...
ค้นหา
ดู: 152|ตอบกลับ: 0

[SuperHQ] The Martian (2015) : เดอะ มาร์เชี่ยน กู้ตาย 140 ล้านไมล์ [1080p][พากย์ไทยDTS+อังกฤษDTS][บรรยายไทย+อังกฤษ]

[คัดลอกลิงก์]

 
 ตำเเหน่ง: ผู้ดูแลระบบ

 มีนามว่า:hdfile4you 
สมาชิกคนที่:
เพศ ไม่ระบุ:
กระทู้:168 
โพสต์:170
พลังน้ำใจ:210 
เงิน:276 
ความดี:220 
เครดิต:380
สิทธิ์อ่าน:200 
สมัครเมื่อ:2015-8-16 
ชมล่าสุด:2019-4-18 
ออนไลน์:65 
สถานะใช้งาน:ออฟไลน์
เหรียญเกียรติยศ
ประดับยศนักโพสต์ยอดเยี่ยม ประดับยศนักออนไลน์ยอดเยี่ยม ประดับยศนักแบ่งปันยอดเยี่ยม ประดับยศนักกิจกรรมยอดเยี่ยม ประดับยศนักเชิญชวนยอดเยี่ยม ประดับยศนักเขียนบทความยอดเยี่ยม ประดับยศนักออกแบบยอดเยี่ยม ประดับยศกิตติมศักดิ์ ประดับยศผู้ให้การสนับสนุน ประดับยศผู้ทรงคุณวุฒิ ประดับยศผู้สมัครสมาชิกใหม่ ประดับยศผู้ตั้งโพสต์ ประดับยศผู้ออนไลน์ต่อเนื่อง ประดับยศผู้ร่วมบริจากช่วยเหลือเว็บ


โพสต์ 5 วันที่แล้ว | ดู: 152| ตอบกลับ: 0
[SuperHQ] The Martian (2015) : เดอะ มาร์เชี่ยน กู้ตาย 140 ล้านไมล์ [1080p][พากย์ไทยDTS+อังกฤษDTS][บรรยายไทย+อังกฤษ]

190918crjm29o8rdbo9sxh.jpg

http://www.imdb.com/title/tt3659388/  8.0/10670,793 votes
The Martian ถ่ายทอดเรื่องราวที่เกิดขึ้นระหว่างภารกิจการสำรวจดาวอังคาร นักบินอวกาศ มาร์ค วัทนีย์ (แมตต์ เดมอน) ได้รับการสันนิษฐานว่าเสียชีวิตแล้วหลังเกิดพายุรุนแรงและทีมปฏิบัติภารกิจได้ทิ้งเขาไว้เบื้องหลัง แต่วัทนีย์กลับเอาชีวิตรอดมาได้และพบว่าตนเองถูกทิ้งไว้ตามลำพังบนดาวเคราะห์ที่มีสภาพไม่เหมาะแก่การอยู่อาศัย ด้วยเสบียงเพียงเล็กน้อย เขาต้องใช้ความฉลาด ไหวพริบ และความมุ่งมั่นเพื่อการอยู่รอดและหาทางส่งสัญญาณกลับมายังโลกว่าเขายังมีชีวิตอยู่ จากระยะทางที่ไกล  นับหลายล้านไมล์ นาซ่าและทีมนักวิทยาศาสตร์จากนานาชาติต่างพยายามนำ “เดอะ มาร์เชียน” กลับบ้าน ขณะเดียวกันเพื่อนร่วมทีมของเขาได้ร่วมกันวางแผนว่าจะเป็นอย่างไรหากภารกิจการช่วยเหลือล้มเหลว จากเหตุการณ์เหล่านี้ทำให้เห็นความกล้าหาญ ทุกคนต้องร่วมมือกันเพื่อให้แวทนีย์กลับมาอย่างปลอดภัย
General
Unique ID                                : 116674155333251828478123425866483247929 (0x57C69FFCAC6259285DB53B39ED0C2B39)
Complete name                            : D:\อัพหนัง\MoFile\The.Martian.2015.1080p.BrRip.THAIDTS.x264.BDMASTER_hdfile4you.clubhd4you.net.mkv
Format                                   : Matroska
Format version                           : Version 4 / Version 2
File size                                : 4.64 GiB
Duration                                 : 2h 21mn
Overall bit rate                         : 4 690 Kbps
Movie name                               : The.Martian.2015.1080p.BrRip.THAIDTS.x264.BDMASTER_hdfile4you.clubhd4you.net
Encoded date                             : UTC 2019-04-09 13:47:21
Writing application                      : mkvmerge v32.0.0 ('Astral Progressions') 64-bit
Writing library                          : libebml v1.3.7 + libmatroska v1.5.0
DURATION                                 : 02:20:15.616000000
NUMBER_OF_FRAMES                         : 3494
NUMBER_OF_BYTES                          : 27139283
_STATISTICS_WRITING_APP                  : mkvmerge v32.0.0 ('Astral Progressions') 64-bit
_STATISTICS_WRITING_DATE_UTC             : 2019-04-09 13:47:21
_STATISTICS_TAGS                         : BPS DURATION NUMBER_OF_FRAMES NUMBER_OF_BYTES

Video
ID                                       : 1
Format                                   : AVC
Format/Info                              : Advanced Video Codec
Format profile                           : [email protected]
Format settings, CABAC                   : Yes
Format settings, ReFrames                : 4 frames
Codec ID                                 : V_MPEG4/ISO/AVC
Duration                                 : 2h 21mn
Bit rate                                 : 3 126 Kbps
Width                                    : 1 920 pixels
Height                                   : 800 pixels
Display aspect ratio                     : 2.40:1
Frame rate mode                          : Constant
Frame rate                               : 23.976 fps
Color space                              : YUV
Chroma subsampling                       : 4:2:0
Bit depth                                : 8 bits
Scan type                                : Progressive
Bits/(Pixel*Frame)                       : 0.085
Stream size                              : 3.04 GiB (66%)
Title                                    : The.Martian.2015.1080p.BrRip.THAIDTS.x264.BDMASTER_hdfile4you.clubhd4you.net
Writing library                          : x264 core 146 r2538 121396c
Encoding settings                        : cabac=1 / ref=4 / deblock=1:-3:-3 / analyse=0x3:0x113 / me=umh / subme=11 / psy=1 / psy_rd=1.00:0.00 / mixed_ref=1 / me_range=64 / chroma_me=1 / trellis=2 / 8x8dct=1 / cqm=0 / deadzone=21,11 / fast_pskip=1 / chroma_qp_offset=-2 / threads=24 / lookahead_threads=2 / sliced_threads=0 / nr=0 / decimate=1 / interlaced=0 / bluray_compat=0 / constrained_intra=0 / bframes=4 / b_pyramid=2 / b_adapt=1 / b_bias=0 / direct=1 / weightb=1 / open_gop=0 / weightp=2 / keyint=250 / keyint_min=23 / scenecut=40 / intra_refresh=0 / rc_lookahead=120 / rc=2pass / mbtree=1 / bitrate=3126 / ratetol=1.0 / qcomp=0.60 / qpmin=0 / qpmax=69 / qpstep=4 / cplxblur=20.0 / qblur=0.5 / vbv_maxrate=99999 / vbv_bufsize=99999 / nal_hrd=none / filler=0 / ip_ratio=1.40 / aq=1:1.00
Language                                 : English
Default                                  : Yes
Forced                                   : No
DURATION                                 : 02:21:37.586000000
NUMBER_OF_FRAMES                         : 203738
NUMBER_OF_BYTES                          : 3319680200
_STATISTICS_WRITING_APP                  : mkvmerge v32.0.0 ('Astral Progressions') 64-bit
_STATISTICS_WRITING_DATE_UTC             : 2019-04-09 13:47:21
_STATISTICS_TAGS                         : BPS DURATION NUMBER_OF_FRAMES NUMBER_OF_BYTES

Audio #1
ID                                       : 2
Format                                   : DTS
Format/Info                              : Digital Theater Systems
Mode                                     : 16
Format settings, Endianness              : Big
Codec ID                                 : A_DTS
Duration                                 : 2h 21mn
Bit rate mode                            : Constant
Bit rate                                 : 768 Kbps
Channel(s)                               : 6 channels
Channel positions                        : Front: L C R, Side: L R, LFE
Sampling rate                            : 48.0 KHz
Bit depth                                : 24 bits
Compression mode                         : Lossy
Stream size                              : 778 MiB (16%)
Title                                    : Thai DTS By_hdfile4you.clubhd4you.net
Language                                 : Thai
Default                                  : Yes
Forced                                   : Yes

Audio #2
ID                                       : 3
Format                                   : DTS
Format/Info                              : Digital Theater Systems
Mode                                     : 16
Format settings, Endianness              : Big
Codec ID                                 : A_DTS
Duration                                 : 2h 21mn
Bit rate mode                            : Constant
Bit rate                                 : 755 Kbps
Channel(s)                               : 6 channels
Channel positions                        : Front: L C R, Side: L R, LFE
Sampling rate                            : 48.0 KHz
Bit depth                                : 24 bits
Compression mode                         : Lossy
Stream size                              : 764 MiB (16%)
Title                                    : English DTS By_hdfile4you.clubhd4you.net
Language                                 : English
Default                                  : No
Forced                                   : No

Text #1
ID                                       : 4
Format                                   : VobSub
Muxing mode                              : zlib
Codec ID                                 : S_VOBSUB
Codec ID/Info                            : The same subtitle format used on DVDs
Title                                    : 1080P FOR THAI AUDIO By_hdfile4you
Language                                 : Thai
Default                                  : No
Forced                                   : No

Text #2
ID                                       : 5
Format                                   : VobSub
Muxing mode                              : zlib
Codec ID                                 : S_VOBSUB
Codec ID/Info                            : The same subtitle format used on DVDs
Title                                    : 1080P BD MASTER By_hdfile4you
Language                                 : Thai
Default                                  : No
Forced                                   : No

Text #3
ID                                       : 6
Format                                   : VobSub
Muxing mode                              : zlib
Codec ID                                 : S_VOBSUB
Codec ID/Info                            : The same subtitle format used on DVDs
Title                                    : 1080P BD YELLOW By_hdfile4you
Language                                 : Thai
Default                                  : No
Forced                                   : No

Text #4
ID                                       : 7
Format                                   : VobSub
Muxing mode                              : zlib
Codec ID                                 : S_VOBSUB
Codec ID/Info                            : The same subtitle format used on DVDs
Title                                    : 1080P BD UNDER By_hdfile4you
Language                                 : Thai
Default                                  : No
Forced                                   : No

Text #5
ID                                       : 8
Format                                   : VobSub
Muxing mode                              : zlib
Codec ID                                 : S_VOBSUB
Codec ID/Info                            : The same subtitle format used on DVDs
Title                                    : 480P BD MASTER By_hdfile4you
Language                                 : Thai
Default                                  : No
Forced                                   : No

Text #6
ID                                       : 9
Format                                   : PGS
Muxing mode                              : zlib
Codec ID                                 : S_HDMV/PGS
Codec ID/Info                            : The same subtitle format used on BDs/HD-DVDs
Title                                    : FOR THAI AUDIO PARTS By_hdfile4you
Language                                 : Thai
Default                                  : No
Forced                                   : No

Text #7
ID                                       : 10
Format                                   : PGS
Muxing mode                              : zlib
Codec ID                                 : S_HDMV/PGS
Codec ID/Info                            : The same subtitle format used on BDs/HD-DVDs
Title                                    : BD MASTER By_hdfile4you
Language                                 : Thai
Default                                  : Yes
Forced                                   : Yes

Text #8
ID                                       : 11
Format                                   : PGS
Muxing mode                              : zlib
Codec ID                                 : S_HDMV/PGS
Codec ID/Info                            : The same subtitle format used on BDs/HD-DVDs
Title                                    : BD UNDER By_hdfile4you
Language                                 : Thai
Default                                  : No
Forced                                   : No

Text #9
ID                                       : 12
Format                                   : PGS
Muxing mode                              : zlib
Codec ID                                 : S_HDMV/PGS
Codec ID/Info                            : The same subtitle format used on BDs/HD-DVDs
Title                                    : BD MASTER By_hdfile4you
Language                                 : English
Default                                  : No
Forced                                   : No
1 GB / PART
Download (ไม่อัพโหลด Google Drive แทน)

ลิ๊งเดียวจบ
*** ถ้าโหลดไม่ได้แสดงว่าติด Limit ต้องรอพรุ่งนี้เพราะคนโหลดเยอะนะครับ ***
ลิ๊งเดียวจบ
PASS : http://hdfile4you.clubhd4you.net/
*** ถ้าโหลดไม่ได้แสดงว่าติด Limit ต้องรอพรุ่งนี้เพราะคนโหลดเยอะนะครับ ***
SuperHQ 1080p
Download
SuperHQ 1080p

ตั้งชื่อไฟล์ตามแบบนี้เท่านั้น
1.The Martian.part1.rar
2.The Martian.part2.rar
3.The Martian.part3.rar
4.The Martian.part4.rar

ปล.  -- Winrar ใส่ Recovery Record 5% ทุกไฟล์ครับ --


ขออภัย! คุณไม่ได้รับสิทธิ์ในการดำเนินการในส่วนนี้ กรุณาเลือกอย่างใดอย่างหนึ่ง ลงชื่อเข้าใช้ | ลงทะเบียน

รายละเอียดเครดิต

ปิด

ประกาศจากทางเว็ป Hdfile4youก่อนหน้า /3 ต่อไป

cornfile.com

ประวัติการแบน|อุปกรณ์พกพา|ข้อความล้วน|โหลดหนัง หนังใหม่ เก่า เพลง โหลดฟรี ดูฟรี Hdfile4you

website counter

GMT+7, 2019-4-19 03:27 , Processed in 0.052138 second(s), 31 queries .

Powered by Discuz! X3.4 R20180101, Rev.59

© 2001-2017 Comsenz Inc.

ตอบกระทู้ ขึ้นไปด้านบน ไปที่หน้ารายการกระทู้