โหลดหนัง Hdfile4you

 ลืมรหัสผ่าน
 ลงทะเบียน
Loading...
ค้นหา
ดู: 295|ตอบกลับ: 1

[SuperHQ] IceMan (2014) : ล่าทะลุศตวรรษ [1080p][พากย์ไทย5.1+จีนDTS][บรรยายไทย+อังกฤษ]

[คัดลอกลิงก์]

 
 ตำเเหน่ง: ผู้ดูแลระบบ

 มีนามว่า:hdfile4you 
สมาชิกคนที่:
เพศ ไม่ระบุ:
กระทู้:234 
โพสต์:238
พลังน้ำใจ:291 
เงิน:381 
ความดี:301 
เครดิต:529
สิทธิ์อ่าน:200 
สมัครเมื่อ:2015-8-16 
ชมล่าสุด:2019-5-18 
ออนไลน์:101 
สถานะใช้งาน:ออฟไลน์
เหรียญเกียรติยศ
ประดับยศนักโพสต์ยอดเยี่ยม ประดับยศนักออนไลน์ยอดเยี่ยม ประดับยศนักแบ่งปันยอดเยี่ยม ประดับยศนักกิจกรรมยอดเยี่ยม ประดับยศนักเชิญชวนยอดเยี่ยม ประดับยศนักเขียนบทความยอดเยี่ยม ประดับยศนักออกแบบยอดเยี่ยม ประดับยศกิตติมศักดิ์ ประดับยศผู้ให้การสนับสนุน ประดับยศผู้ทรงคุณวุฒิ ประดับยศผู้สมัครสมาชิกใหม่ ประดับยศผู้ตั้งโพสต์ ประดับยศผู้ออนไลน์ต่อเนื่อง ประดับยศผู้ร่วมบริจากช่วยเหลือเว็บ


โพสต์ 2019-4-27 22:33:29 | ดู: 295| ตอบกลับ: 1
[SuperHQ] IceMan (2014) : ล่าทะลุศตวรรษ [1080p][พากย์ไทย5.1+จีนDTS][บรรยายไทย+อังกฤษ]

112298_front.jpg

https://www.imdb.com/title/tt2557256/  4.8/103,031 votes
ในราชวงศ์หมิงมีเด็กกำพร้าสี่คน  อิง  (รับบทโดย ดอนนี่ เยน),  เส้า  (รับบทโดย หวังเป่าเฉียง),  หยวนหลง  (รับบทโดย เยิ่นต๊ะหัว)และ  หนี่ฮู  (รับบทโดย ยู คัง) ทั้งสี่คนโตขึ้นมาในหมู่บ้านเต๋าหยวน สนิทกันเหมือนพี่น้องด้วยวิทยายุทธที่ยอดเยี่ยมทำให้พวกเขาสามารถก้าวไปเป็นราชองครักษ์ชั้นสูงได้หลังจากที่ทั้งสี่คนสังหารผู้นำทัพญี่ปุ่นได้สำเร็จ องค์ฮ่องเต้ได้บัญชาให้  อิง  เป็นผู้ดูแลการนำกงล้อทองคำจากสินธุกลับมายังเมืองหลวงระหว่างการปฏิบัติภารกิจ  อิง  ถูกใส่ร้ายว่าเป็นฆาตกร ฮ่องเต้จึงสั่งประหาร  อิง  ทำให้อิงสู้เพื่อหนีการจับกุมความรุนแรงของการต่อสู้ครั้งนั้นสั่นสะเทือนปฐพี จนทำให้เกิดหิมะถล่มลงมาทับร่างของทั้งสี่ในปี 2013 บริษัท สไควร์ ถัง ได้ขุดพบร่างมนุษย์โบราณที่ถูกแช่แข็งไว้คือ  อิง ,  เส้า  และ  หนีฮู  ระหว่างการขนย้ายรถขนส่งเกิดอุบัติเหตุทำให้น้ำแข็งที่ปกคลุมร่างของ  อิง  ละลายจนฟื้นคืนสติขึ้นมาในฮ่องกงสมัยใหม่และเขาก็บังเอิญได้พบกับ  เมย์ สาวสังคมตัวแม่  อิง เริ่มคุ้นชินกับสังคมสมัยใหม่ ด้วยความช่วยเหลือจากอินเทอร์เน็ตเขาพบหลักฐานทางประวัติศาสตร์ที่ระบุว่าตัวเองถูกกล่าวหาว่าเป็นกบฏ  อิง  จะลบล้างความผิดให้ตัวเองได้หรือไม่ติดตามได้ใน ICEMAN 3D ล่าทะลุศตวรรษ!!!
Format                                   : Matroska
Format version                           : Version 4 / Version 2
File size                                : 3.89 GiB
Duration                                 : 1h 44mn
Overall bit rate                         : 5 340 Kbps
Movie name                               : Iceman.2014.1080p.BrRip.x264.DTS
Encoded date                             : UTC 2010-02-22 21:41:31
Writing application                      : mkvmerge v5.9.0 ( On The Loose ) built on Dec  9 2012 15:37:01
Writing library                          : libebml v1.3.0 + libmatroska v1.4.0

Video
ID                                       : 1
Format                                   : AVC
Format/Info                              : Advanced Video Codec
Format profile                           : [email protected]
Format settings, CABAC                   : Yes
Format settings, ReFrames                : 4 frames
Codec ID                                 : V_MPEG4/ISO/AVC
Duration                                 : 1h 44mn
Bit rate                                 : 3 555 Kbps
Width                                    : 1 920 pixels
Height                                   : 856 pixels
Display aspect ratio                     : 2.25:1
Frame rate mode                          : Constant
Frame rate                               : 23.976 fps
Color space                              : YUV
Chroma subsampling                       : 4:2:0
Bit depth                                : 8 bits
Scan type                                : Progressive
Bits/(Pixel*Frame)                       : 0.090
Stream size                              : 2.61 GiB (67%)
Title                                    : Iceman.2014.1080p.BrRip.x264.DTS
Writing library                          : x264 core 130 r2273 b3065e6
Encoding settings                        : cabac=1 / ref=4 / deblock=1:0:0 / analyse=0x3:0x113 / me=umh / subme=11 / psy=1 / psy_rd=1.00:0.00 / mixed_ref=1 / me_range=24 / chroma_me=1 / trellis=2 / 8x8dct=1 / cqm=0 / deadzone=21,11 / fast_pskip=1 / chroma_qp_offset=-2 / threads=12 / lookahead_threads=1 / sliced_threads=0 / nr=0 / decimate=1 / interlaced=0 / bluray_compat=0 / constrained_intra=0 / bframes=4 / b_pyramid=2 / b_adapt=1 / b_bias=0 / direct=1 / weightb=1 / open_gop=0 / weightp=2 / keyint=240 / keyint_min=24 / scenecut=40 / intra_refresh=0 / rc_lookahead=40 / rc=2pass / mbtree=1 / bitrate=3555 / ratetol=1.0 / qcomp=0.60 / qpmin=0 / qpmax=69 / qpstep=4 / cplxblur=20.0 / qblur=0.5 / ip_ratio=1.40 / aq=1:1.00
Language                                 : Chinese
Default                                  : Yes
Forced                                   : No
Color primaries                          : BT.709
Transfer characteristics                 : BT.709
Matrix coefficients                      : BT.709

Audio #1
ID                                       : 2
Format                                   : AC-3
Format/Info                              : Audio Coding 3
Mode extension                           : CM (complete main)
Format settings, Endianness              : Big
Codec ID                                 : A_AC3
Duration                                 : 1h 44mn
Bit rate mode                            : Constant
Bit rate                                 : 448 Kbps
Channel(s)                               : 6 channels
Channel positions                        : Front: L C R, Side: L R, LFE
Sampling rate                            : 48.0 KHz
Bit depth                                : 16 bits
Compression mode                         : Lossy
Stream size                              : 334 MiB (8%)
Title                                    : Thai DVD Master
Language                                 : Thai
Default                                  : Yes
Forced                                   : Yes

Audio #2
ID                                       : 3
Format                                   : DTS
Format/Info                              : Digital Theater Systems
Mode                                     : 16
Format settings, Endianness              : Big
Codec ID                                 : A_DTS
Duration                                 : 1h 44mn
Bit rate mode                            : Constant
Bit rate                                 : 755 Kbps
Channel(s)                               : 6 channels
Channel positions                        : Front: L C R, Side: L R, LFE
Sampling rate                            : 48.0 KHz
Bit depth                                : 24 bits
Compression mode                         : Lossy
Stream size                              : 562 MiB (14%)
Title                                    : Cantonese DTS
Language                                 : Chinese
Default                                  : No
Forced                                   : No

Audio #3
ID                                       : 4
Format                                   : AC-3
Format/Info                              : Audio Coding 3
Mode extension                           : CM (complete main)
Format settings, Endianness              : Big
Codec ID                                 : A_AC3
Duration                                 : 1h 44mn
Bit rate mode                            : Constant
Bit rate                                 : 448 Kbps
Channel(s)                               : 6 channels
Channel positions                        : Front: L C R, Side: L R, LFE
Sampling rate                            : 48.0 KHz
Bit depth                                : 16 bits
Compression mode                         : Lossy
Stream size                              : 334 MiB (8%)
Title                                    : Mandarin AC3 5.1
Language                                 : Chinese
Default                                  : No
Forced                                   : No

Text #1
ID                                       : 5
Format                                   : VobSub
Codec ID                                 : S_VOBSUB
Codec ID/Info                            : The same subtitle format used on DVDs
Title                                    : Thai 480p From DVD Master
Language                                 : Thai
Default                                  : No
Forced                                   : No

Text #2
ID                                       : 6
Format                                   : VobSub
Codec ID                                 : S_VOBSUB
Codec ID/Info                            : The same subtitle format used on DVDs
Title                                    : Thai 720p
Language                                 : Thai
Default                                  : No
Forced                                   : No

Text #3
ID                                       : 7
Format                                   : VobSub
Codec ID                                 : S_VOBSUB
Codec ID/Info                            : The same subtitle format used on DVDs
Title                                    : Thai 1080p
Language                                 : Thai
Default                                  : Yes
Forced                                   : Yes

Text #4
ID                                       : 8
Format                                   : VobSub
Codec ID                                 : S_VOBSUB
Codec ID/Info                            : The same subtitle format used on DVDs
Title                                    : Thai 1080p Yellow
Language                                 : Thai
Default                                  : No
Forced                                   : No

Text #5
ID                                       : 9
Format                                   : VobSub
Codec ID                                 : S_VOBSUB
Codec ID/Info                            : The same subtitle format used on DVDs
Title                                    : Thai 1080p BIG
Language                                 : Thai
Default                                  : No
Forced                                   : No

Text #6
ID                                       : 10
Format                                   : VobSub
Codec ID                                 : S_VOBSUB
Codec ID/Info                            : The same subtitle format used on DVDs
Title                                    : Thai 1080p Out
Language                                 : Thai
Default                                  : No
Forced                                   : No

Text #7
ID                                       : 11
Format                                   : VobSub
Codec ID                                 : S_VOBSUB
Codec ID/Info                            : The same subtitle format used on DVDs
Title                                    : Thai 1080p Out [BIG]
Language                                 : Thai
Default                                  : No
Forced                                   : No

Text #8
ID                                       : 12
Format                                   : PGS
Codec ID                                 : S_HDMV/PGS
Codec ID/Info                            : The same subtitle format used on BDs/HD-DVDs
Title                                    : Thai PGS
Language                                 : Thai
Default                                  : No
Forced                                   : No

Text #9
ID                                       : 13
Format                                   : PGS
Codec ID                                 : S_HDMV/PGS
Codec ID/Info                            : The same subtitle format used on BDs/HD-DVDs
Title                                    : Thai PGS Out
Language                                 : Thai
Default                                  : No
Forced                                   : No

Text #10
ID                                       : 14
Format                                   : PGS
Codec ID                                 : S_HDMV/PGS
Codec ID/Info                            : The same subtitle format used on BDs/HD-DVDs
Title                                    : Thai PGS Yellow
Language                                 : Thai
Default                                  : No
Forced                                   : No

Text #11
ID                                       : 15
Format                                   : VobSub
Codec ID                                 : S_VOBSUB
Codec ID/Info                            : The same subtitle format used on DVDs
Title                                    : English
Language                                 : English
Default                                  : No
Forced                                   : No

1 GB / PART
Download (ไม่อัพโหลด Google Drive แทน)

ลิ๊งเดียวจบ
*** ถ้าโหลดไม่ได้แสดงว่าติด Limit ต้องรอพรุ่งนี้เพราะคนโหลดเยอะนะครับ ***
ลิ๊งเดียวจบ
PASS : http://hdfile4you.clubhd4you.net/
*** ถ้าโหลดไม่ได้แสดงว่าติด Limit ต้องรอพรุ่งนี้เพราะคนโหลดเยอะนะครับ ***
SuperHQ 1080p
Download
SuperHQ 1080p


ตั้งชื่อไฟล์ตามแบบนี้เท่านั้น
1.IceMan.part1.rar
2.IceMan.part2.rar
3.IceMan.part3.rar
4.IceMan.part4.rar

ปล.  -- Winrar ใส่ Recovery Record 5% ทุกไฟล์ครับ --



 
 ตำเเหน่ง: Junior

 มีนามว่า:boydmlion 
สมาชิกคนที่:2878 
เพศ ไม่ระบุ:
กระทู้:
โพสต์:20
พลังน้ำใจ:45 
เงิน:100 
ความดี:45 
เครดิต:65
สิทธิ์อ่าน:20 
สมัครเมื่อ:2019-1-12 
ชมล่าสุด:2019-5-25 
ออนไลน์:59 
สถานะใช้งาน:ออฟไลน์
คุณยังไม่ได้ใช้เหรียญ
กรุณาคลิกที่นี่เพื่อใช้เหรียญ


โพสต์ 2019-4-29 13:45:54
ขอบคุณครับบ
ขออภัย! คุณไม่ได้รับสิทธิ์ในการดำเนินการในส่วนนี้ กรุณาเลือกอย่างใดอย่างหนึ่ง ลงชื่อเข้าใช้ | ลงทะเบียน

รายละเอียดเครดิต

ปิด

ประกาศจากทางเว็ป Hdfile4youก่อนหน้า /3 ต่อไป

cornfile.com

ประวัติการแบน|อุปกรณ์พกพา|ข้อความล้วน|โหลดหนัง หนังใหม่ เก่า เพลง โหลดฟรี ดูฟรี Hdfile4you

website counter

GMT+7, 2019-5-26 06:04 , Processed in 0.044135 second(s), 29 queries .

Powered by Discuz! X3.4 R20180101, Rev.59

© 2001-2017 Comsenz Inc.

ตอบกระทู้ ขึ้นไปด้านบน ไปที่หน้ารายการกระทู้