โหลดหนัง Hdfile4you

 ลืมรหัสผ่าน
 ลงทะเบียน
Loading...
ค้นหา
ดู: 84|ตอบกลับ: 0

[MiniHQ กระหึ่ม THAI-DTS] Fearless (2006) Director s Cut : จอมคนผงาดโลก [1080p][พากย์ไทยDTS+จีนDTS][บรรยายไทย+อังกฤษ]

[คัดลอกลิงก์]

 
 ตำเเหน่ง: ผู้ดูแลระบบ

 มีนามว่า:hdfile4you 
สมาชิกคนที่:
เพศ ไม่ระบุ:
กระทู้:234 
โพสต์:238
พลังน้ำใจ:291 
เงิน:381 
ความดี:301 
เครดิต:529
สิทธิ์อ่าน:200 
สมัครเมื่อ:2015-8-16 
ชมล่าสุด:2019-5-18 
ออนไลน์:101 
สถานะใช้งาน:ออฟไลน์
เหรียญเกียรติยศ
ประดับยศนักโพสต์ยอดเยี่ยม ประดับยศนักออนไลน์ยอดเยี่ยม ประดับยศนักแบ่งปันยอดเยี่ยม ประดับยศนักกิจกรรมยอดเยี่ยม ประดับยศนักเชิญชวนยอดเยี่ยม ประดับยศนักเขียนบทความยอดเยี่ยม ประดับยศนักออกแบบยอดเยี่ยม ประดับยศกิตติมศักดิ์ ประดับยศผู้ให้การสนับสนุน ประดับยศผู้ทรงคุณวุฒิ ประดับยศผู้สมัครสมาชิกใหม่ ประดับยศผู้ตั้งโพสต์ ประดับยศผู้ออนไลน์ต่อเนื่อง ประดับยศผู้ร่วมบริจากช่วยเหลือเว็บ


โพสต์ 2019-4-28 16:54:08 | ดู: 84| ตอบกลับ: 0
[MiniHQ กระหึ่ม THAI-DTS] Fearless (2006) Director s Cut : จอมคนผงาดโลก [1080p][พากย์ไทยDTS+จีนDTS][บรรยายไทย+อังกฤษ]

1974_front.jpg

https://www.imdb.com/title/tt0446059/   X-Men: Apocalypse(2016) on IMDb
ฮั่ว หยวนเจี๋ย (ลี) ถูกพ่อของเขาปฏิเสธที่จะสอนมวยให้เพราะไม่อยากให้ลูก เดินตามรอยเท้า แต่มันทำให้ฮั่วเกิดแรงฮึดฝึกฝนจนเก่งกาจในวิชามวยวู ชู และสามารถเอาชนะยอดฝีมือจากถิ่นต่าง ๆ จนกลายเป็นสุดยอดนักสู้ผู้ไร้คนสยบ
Complete name               : Fearless_2006.Director.Cut.1080p.BDRip.DTS.x264.mkv
Format                      : Matroska
Format version              : Version 4 / Version 2
File size                   : 4.02 GiB
Duration                    : 2h 20mn
Overall bit rate            : 4 079 Kbps
Movie name                  : Fearless.2006.Director.Cut.1080p.DTS.BrRip.x264
Encoded date                : UTC 2018-04-18 03:42:17
Writing application         : mkvmerge v8.2.0 ( World of Adventure ) 32bit
Writing library             : libebml v1.3.1 + libmatroska v1.4.2
DURATION                    : 02:17:53.671000000
NUMBER_OF_FRAMES            : 1225
NUMBER_OF_BYTES             : 4888221
_STATISTICS_WRITING_APP     : mkvmerge v8.2.0 ( World of Adventure ) 32bit
_STATISTICS_WRITING_DATE_UT : 2018-04-18 03:42:17
_STATISTICS_TAGS            : BPS DURATION NUMBER_OF_FRAMES NUMBER_OF_BYTES

Video
ID                          : 1
Format                      : AVC
Format/Info                 : Advanced Video Codec
Format profile              : [email protected]
Format settings, CABAC      : Yes
Format settings, ReFrames   : 5 frames
Codec ID                    : V_MPEG4/ISO/AVC
Duration                    : 2h 20mn
Bit rate                    : 2 556 Kbps
Width                       : 1 920 pixels
Height                      : 800 pixels
Display aspect ratio        : 2.40:1
Frame rate mode             : Constant
Frame rate                  : 23.976 fps
Color space                 : YUV
Chroma subsampling          : 4:2:0
Bit depth                   : 8 bits
Scan type                   : Progressive
Bits/(Pixel*Frame)          : 0.069
Stream size                 : 2.45 GiB (61%)
Title                       : Fearless_2006.Director.Cut.1080p.BDRip.DTS..mkv
Writing library             : x264 core 146 r2538 121396c
Encoding settings           : cabac=1 / ref=5 / deblock=1:0:0 / analyse=0x3:0x133 / me=umh / subme=10 / psy=1 / psy_rd=1.00:0.00 / mixed_ref=1 / me_range=24 / chroma_me=1 / trellis=2 / 8x8dct=1 / cqm=0 / deadzone=21,11 / fast_pskip=1 / chroma_qp_offset=-2 / threads=36 / lookahead_threads=4 / sliced_threads=0 / nr=0 / decimate=1 / interlaced=0 / bluray_compat=0 / constrained_intra=0 / bframes=6 / b_pyramid=2 / b_adapt=2 / b_bias=0 / direct=3 / weightb=1 / open_gop=0 / weightp=2 / keyint=240 / keyint_min=23 / scenecut=40 / intra_refresh=0 / rc_lookahead=60 / rc=2pass / mbtree=1 / bitrate=2556 / ratetol=1.0 / qcomp=0.60 / qpmin=10 / qpmax=51 / qpstep=4 / cplxblur=20.0 / qblur=0.5 / vbv_maxrate=62500 / vbv_bufsize=78125 / nal_hrd=none / filler=0 / ip_ratio=1.40 / aq=1:1.00
Language                    : English
Default                     : No
Forced                      : No

Audio #1
ID                          : 2
Format                      : DTS
Format/Info                 : Digital Theater Systems
Mode                        : 16
Format settings, Endianness : Big
Codec ID                    : A_DTS
Duration                    : 2h 20mn
Bit rate mode               : Constant
Bit rate                    : 755 Kbps
Channel(s)                  : 6 channels
Channel positions           : Front: L C R, Side: L R, LFE
Sampling rate               : 48.0 KHz
Bit depth                   : 24 bits
Compression mode            : Lossy
Delay relative to video     : 10s 0ms
Stream size                 : 761 MiB (18%)
Title                       : THAI  DTS  @ 755 Kbps
Language                    : Thai
Default                     : Yes
Forced                      : Yes

Audio #2
ID                          : 3
Format                      : DTS
Format/Info                 : Digital Theater Systems
Mode                        : 16
Format settings, Endianness : Big
Codec ID                    : A_DTS
Duration                    : 2h 20mn
Bit rate mode               : Constant
Bit rate                    : 755 Kbps
Channel(s)                  : 6 channels
Channel positions           : Front: L C R, Side: L R, LFE
Sampling rate               : 48.0 KHz
Bit depth                   : 24 bits
Compression mode            : Lossy
Delay relative to video     : 10s 0ms
Stream size                 : 761 MiB (18%)
Title                       : CHI DTS @ 755 Kbps
Language                    : Chinese
Default                     : No
Forced                      : No

Text #1
ID                          : 4
Format                      : UTF-8
Codec ID                    : S_TEXT/UTF8
Codec ID/Info               : UTF-8 Plain Text
Title                       : ENG SRT
Language                    : English
Default                     : No
Forced                      : No

Text #2
ID                          : 5
Format                      : VobSub
Codec ID                    : S_VOBSUB
Codec ID/Info               : Picture based subtitle format used on DVDs
Title                       : THAI 1080p Bluray Master
Language                    : Thai
Default                     : No
Forced                      : No

Text #3
ID                          : 6
Format                      : VobSub
Codec ID                    : S_VOBSUB
Codec ID/Info               : Picture based subtitle format used on DVDs
Title                       : THAI 1080p Yellow
Language                    : Thai
Default                     : No
Forced                      : No

Text #4
ID                          : 7
Format                      : VobSub
Codec ID                    : S_VOBSUB
Codec ID/Info               : Picture based subtitle format used on DVDs
Title                       : THAI 1080p Out
Language                    : Thai
Default                     : No
Forced                      : No

ดาวน์โหลด

ตรวจสอบสถานะ: ต้องซื้อหรือสิทธิไม่เพียงพอ

กลุ่มผู้ใช้ของคุณ: ผู้เยี่ยมชม

ชื่อไฟล์: Fearless 
ดาวน์โหลด: 5  ขนาดไฟล์: 4 GB 
สิทธิ์ในการดาวน์โหลด: VIP  ขึ้นไป หรือ สมาชิก VIP   [ซื้อวีไอพี]   [ซื้อกลุ่ม VIP]




ขออภัย! คุณไม่ได้รับสิทธิ์ในการดำเนินการในส่วนนี้ กรุณาเลือกอย่างใดอย่างหนึ่ง ลงชื่อเข้าใช้ | ลงทะเบียน

รายละเอียดเครดิต

ปิด

ประกาศจากทางเว็ป Hdfile4youก่อนหน้า /3 ต่อไป

cornfile.com

ประวัติการแบน|อุปกรณ์พกพา|ข้อความล้วน|โหลดหนัง หนังใหม่ เก่า เพลง โหลดฟรี ดูฟรี Hdfile4you

website counter

GMT+7, 2019-5-26 05:51 , Processed in 0.031643 second(s), 27 queries .

Powered by Discuz! X3.4 R20180101, Rev.59

© 2001-2017 Comsenz Inc.

ตอบกระทู้ ขึ้นไปด้านบน ไปที่หน้ารายการกระทู้