โหลดหนัง Hdfile4you

 ลืมรหัสผ่าน
 ลงทะเบียน
ค้นหา
ดู: 170|ตอบกลับ: 0

[MiniHQ] Snatch (2000) : สแน็ตช์...ทีเอ็งข้าไม่ว่า ทีข้าเอ็งอย่าโวย [1080p][พากย์ไทย2.0+อังกฤษDTS][บรรยายไทย+อังกฤษ]

[คัดลอกลิงก์]

 
 ตำเเหน่ง: ผู้ดูแลระบบ

 มีนามว่า:hdfile4you 
สมาชิกคนที่:
เพศ ไม่ระบุ:
กระทู้:234 
โพสต์:238
พลังน้ำใจ:291 
เงิน:381 
ความดี:301 
เครดิต:529
สิทธิ์อ่าน:200 
สมัครเมื่อ:2015-8-16 
ชมล่าสุด:2019-5-18 
ออนไลน์:101 
สถานะใช้งาน:ออฟไลน์
เหรียญเกียรติยศ
ประดับยศนักโพสต์ยอดเยี่ยม ประดับยศนักออนไลน์ยอดเยี่ยม ประดับยศนักแบ่งปันยอดเยี่ยม ประดับยศนักกิจกรรมยอดเยี่ยม ประดับยศนักเชิญชวนยอดเยี่ยม ประดับยศนักเขียนบทความยอดเยี่ยม ประดับยศนักออกแบบยอดเยี่ยม ประดับยศกิตติมศักดิ์ ประดับยศผู้ให้การสนับสนุน ประดับยศผู้ทรงคุณวุฒิ ประดับยศผู้สมัครสมาชิกใหม่ ประดับยศผู้ตั้งโพสต์ ประดับยศผู้ออนไลน์ต่อเนื่อง ประดับยศผู้ร่วมบริจากช่วยเหลือเว็บ


โพสต์ 2019-5-5 08:33:11 | ดู: 170| ตอบกลับ: 0
[MiniHQ] Snatch (2000) : สแน็ตช์...ทีเอ็งข้าไม่ว่า ทีข้าเอ็งอย่าโวย [1080p][พากย์ไทย2.0+อังกฤษDTS][บรรยายไทย+อังกฤษ]

5043_front.jpg

https://www.imdb.com/title/tt0208092/   X-Men: Apocalypse(2016) on IMDb
เป็นเรื่องราวเกี่ยวกับการปล้นเพชรที่กลายเป็นเรื่องชุลมุน และความยุ่งเหยิงของวงการมวยผิดกฎหมาย กับยิปซีเชื้อสายไอริชและ…สุนัขตัวหนึ่ง โจรขโมยเพชรและคนส่งของอย่างแฟรงกี้ โฟร์ ฟิงเกอร์ส (เบนิซิโอ เตล โทโร่) เดินทางมาแวะที่ลอนดอน ระหว่างเดินทางมุ่งหน้าไปยังนิวยอร์ก เพื่อส่งเพชรเม็ดโตให้กับเจ้านายที่ชื่อ อาวี่ (เดนนิส ฟาริน่า) ในระหว่างส่งมอบเพชรเม็ดเล็กให้กับญาติของอาวี่ที่ชื่อ ดั๊ก เดอะเฮด (ไมก์ ริด) กับนักค้าเพชรคนอื่นๆ ในแฮ็ตตัน การ์เด้น แฟรงกี้ถูกท้าให้ไปพนัน ในการชกมวยแบบผิดกฎหมายที่จัดโดย บอริส เดอะเบลด (เร็ด เชอร์เบดเจีย) แต่แฟรงกี้ไม่รู้ตัวเลยว่าบอริสได้วางแผนจัดฉากต้มเขา!!!
General
Unique ID                                : 58720672805949488191917629281349506813 (0x2C2D30B1AD9F3647C1FB2D45D7F196FD)
Complete name                            : D:\อัพหนัง\upmovie\Snatch.2000.1080p.BrRip.DTS.x264_hdfile4you.clubhd4you.net.mkv
Format                                   : Matroska
Format version                           : Version 4 / Version 2
File size                                : 3.04 GiB
Duration                                 : 1h 42mn
Overall bit rate                         : 4 236 Kbps
Movie name                               : Snatch.2000.1080p.BrRip.DTS.x264_hdfile4you.clubhd4you.net
Encoded date                             : UTC 2019-05-04 02:53:48
Writing application                      : mkvmerge v33.1.0 ('Primrose') 64-bit
Writing library                          : libebml v1.3.7 + libmatroska v1.5.0
DURATION                                 : 01:38:37.953000000
NUMBER_OF_FRAMES                         : 1343
NUMBER_OF_BYTES                          : 48055
_STATISTICS_WRITING_APP                  : mkvmerge v33.1.0 ('Primrose') 64-bit
_STATISTICS_WRITING_DATE_UTC             : 2019-05-04 02:53:48
_STATISTICS_TAGS                         : BPS DURATION NUMBER_OF_FRAMES NUMBER_OF_BYTES

Video
ID                                       : 1
Format                                   : AVC
Format/Info                              : Advanced Video Codec
Format profile                           : [email protected]
Format settings, CABAC                   : Yes
Format settings, ReFrames                : 4 frames
Codec ID                                 : V_MPEG4/ISO/AVC
Duration                                 : 1h 42mn
Bit rate                                 : 2 500 Kbps
Width                                    : 1 920 pixels
Height                                   : 1 040 pixels
Display aspect ratio                     : 1.85:1
Frame rate mode                          : Constant
Frame rate                               : 23.976 fps
Color space                              : YUV
Chroma subsampling                       : 4:2:0
Bit depth                                : 8 bits
Scan type                                : Progressive
Bits/(Pixel*Frame)                       : 0.052
Stream size                              : 1.74 GiB (57%)
Title                                    : Snatch.2000.1080p.BrRip.DTS.x264_hdfile4you.clubhd4you.net
Writing library                          : x264 core 152 r2851M ba24899
Encoding settings                        : cabac=1 / ref=4 / deblock=1:-1:-1 / analyse=0x3:0x113 / me=umh / subme=9 / psy=1 / psy_rd=1.00:0.15 / mixed_ref=1 / me_range=24 / chroma_me=1 / trellis=2 / 8x8dct=1 / cqm=0 / deadzone=21,11 / fast_pskip=1 / chroma_qp_offset=-3 / threads=32 / lookahead_threads=4 / sliced_threads=0 / nr=0 / decimate=1 / interlaced=0 / bluray_compat=0 / constrained_intra=0 / bframes=3 / b_pyramid=2 / b_adapt=2 / b_bias=0 / direct=3 / weightb=1 / open_gop=0 / weightp=2 / keyint=250 / keyint_min=25 / scenecut=40 / intra_refresh=0 / rc_lookahead=50 / rc=2pass / mbtree=1 / bitrate=2500 / ratetol=1.0 / qcomp=0.60 / qpmin=0 / qpmax=69 / qpstep=4 / cplxblur=20.0 / qblur=0.5 / vbv_maxrate=31250 / vbv_bufsize=31250 / nal_hrd=none / filler=0 / ip_ratio=1.40 / aq=3:1.00
Language                                 : English
Default                                  : Yes
Forced                                   : No

Audio #1
ID                                       : 2
Format                                   : AC-3
Format/Info                              : Audio Coding 3
Mode extension                           : CM (complete main)
Format settings, Endianness              : Big
Codec ID                                 : A_AC3
Duration                                 : 1h 42mn
Bit rate mode                            : Constant
Bit rate                                 : 224 Kbps
Channel(s)                               : 2 channels
Channel positions                        : Front: L R
Sampling rate                            : 44.1 KHz
Bit depth                                : 16 bits
Compression mode                         : Lossy
Delay relative to video                  : 1s 400ms
Stream size                              : 165 MiB (5%)
Title                                    : Thai 2.0 By_hdfile4you.clubhd4you.net
Language                                 : Thai
Default                                  : Yes
Forced                                   : Yes

Audio #2
ID                                       : 3
Format                                   : DTS
Format/Info                              : Digital Theater Systems
Mode                                     : 16
Format settings, Endianness              : Big
Codec ID                                 : A_DTS
Duration                                 : 1h 42mn
Bit rate mode                            : Constant
Bit rate                                 : 1 509 Kbps
Channel(s)                               : 6 channels
Channel positions                        : Front: L C R, Side: L R, LFE
Sampling rate                            : 48.0 KHz
Bit depth                                : 24 bits
Compression mode                         : Lossy
Stream size                              : 1.08 GiB (36%)
Title                                    : English DTS By_hdfile4you.clubhd4you.net
Language                                 : English
Default                                  : No
Forced                                   : No

Text #1
ID                                       : 4
Format                                   : VobSub
Muxing mode                              : zlib
Codec ID                                 : S_VOBSUB
Codec ID/Info                            : The same subtitle format used on DVDs
Title                                    : Thai By_hdfile4you
Language                                 : Thai
Default                                  : Yes
Forced                                   : Yes

Text #2
ID                                       : 5
Format                                   : UTF-8
Codec ID                                 : S_TEXT/UTF8
Codec ID/Info                            : UTF-8 Plain Text
Title                                    : Eng
Language                                 : English
Default                                  : No
Forced                                   : No

Text #3
ID                                       : 6
Format                                   : UTF-8
Codec ID                                 : S_TEXT/UTF8
Codec ID/Info                            : UTF-8 Plain Text
Title                                    : Eng
Language                                 : English
Default                                  : No
Forced                                   : No

Text #4
ID                                       : 7
Format                                   : UTF-8
Codec ID                                 : S_TEXT/UTF8
Codec ID/Info                            : UTF-8 Plain Text
Title                                    : Eng
Language                                 : English
Default                                  : No
Forced                                   : No

ดาวน์โหลด

ตรวจสอบสถานะ: ต้องซื้อหรือสิทธิไม่เพียงพอ

กลุ่มผู้ใช้ของคุณ: ผู้เยี่ยมชม

ชื่อไฟล์: Snatch 
ดาวน์โหลด: 2  ขนาดไฟล์: 3.04 GB 
สิทธิ์ในการดาวน์โหลด: VIP  ขึ้นไป หรือ สมาชิก VIP   [ซื้อวีไอพี]   [ซื้อกลุ่ม VIP]




ขออภัย! คุณไม่ได้รับสิทธิ์ในการดำเนินการในส่วนนี้ กรุณาเลือกอย่างใดอย่างหนึ่ง ลงชื่อเข้าใช้ | ลงทะเบียน

รายละเอียดเครดิต

ปิด

ประกาศจากทางเว็ป Hdfile4youก่อนหน้า /3 ต่อไป

cornfile.com

ประวัติการแบน|อุปกรณ์พกพา|ข้อความล้วน|โหลดหนัง หนังใหม่ เก่า เพลง โหลดฟรี ดูฟรี Hdfile4you

website counter

GMT+7, 2019-5-26 06:31 , Processed in 0.067148 second(s), 27 queries .

Powered by Discuz! X3.4 R20180101, Rev.59

© 2001-2017 Comsenz Inc.

ตอบกระทู้ ขึ้นไปด้านบน ไปที่หน้ารายการกระทู้