โหลดหนัง Hdfile4you

 ลืมรหัสผ่าน
 ลงทะเบียน
ค้นหา
ดู: 142|ตอบกลับ: 0

[MiniHQ] Eight Below (2006) : ปฏิบัติการ 8 พันธุ์อึดสุดขั้วโลก [1080p][พากย์ไทย5.1+อังกฤษDTS][บรรยายไทย+อังกฤษ]

[คัดลอกลิงก์]

 
 ตำเเหน่ง: ผู้ดูแลระบบ

 มีนามว่า:hdfile4you 
สมาชิกคนที่:
เพศ ไม่ระบุ:
กระทู้:234 
โพสต์:238
พลังน้ำใจ:291 
เงิน:381 
ความดี:301 
เครดิต:529
สิทธิ์อ่าน:200 
สมัครเมื่อ:2015-8-16 
ชมล่าสุด:2019-5-18 
ออนไลน์:101 
สถานะใช้งาน:ออฟไลน์
เหรียญเกียรติยศ
ประดับยศนักโพสต์ยอดเยี่ยม ประดับยศนักออนไลน์ยอดเยี่ยม ประดับยศนักแบ่งปันยอดเยี่ยม ประดับยศนักกิจกรรมยอดเยี่ยม ประดับยศนักเชิญชวนยอดเยี่ยม ประดับยศนักเขียนบทความยอดเยี่ยม ประดับยศนักออกแบบยอดเยี่ยม ประดับยศกิตติมศักดิ์ ประดับยศผู้ให้การสนับสนุน ประดับยศผู้ทรงคุณวุฒิ ประดับยศผู้สมัครสมาชิกใหม่ ประดับยศผู้ตั้งโพสต์ ประดับยศผู้ออนไลน์ต่อเนื่อง ประดับยศผู้ร่วมบริจากช่วยเหลือเว็บ


โพสต์ 2019-5-15 19:28:42 | ดู: 142| ตอบกลับ: 0
[MiniHQ] Eight Below (2006) : ปฏิบัติการ 8 พันธุ์อึดสุดขั้วโลก [1080p][พากย์ไทย5.1+อังกฤษDTS][บรรยายไทย+อังกฤษ]

18115_front.jpg

https://www.imdb.com/title/tt0397313/   X-Men: Apocalypse(2016) on IMDb
ฤดูหนาวที่แสนทารุณเพิ่งจะมาเยือนแอนตาร์กติกาทีมนักสำรวจและนักวิทยาศาสตร์ ได้แก่ ผู้นำทาง เจอร์รี เชพเพิร์ด (พอล วอล์คเกอร์)นักวาดแผน คูปเปอร์ (เจสัน บิ๊กส์) และนักธรณีวิทยา เดวิส (บรูซ กรีนวู้ด)ที่เพิ่งจะรอดพ้นจากอุบัติเหตุครั้งร้ายแรงมาได้อย่างเฉียดฉิวด้วยฝีมือของทีมสุนัขลากเลื่อนที่เก่งกาจของพวกเขา ถูกบีบให้ต้องอพยพหนีภัยโดยต้องทิ้งสุนัขที่รักไว้เบื้องหลัง ท่ามกลางลมพายุโหมกระหน่ำพร้อมกับสัญญาที่จะกลับคืนมาแต่เมื่อพายุที่ร้ายแรงที่สุดในรอบศตวรรษเคลื่อนตัวใกล้เข้ามาตัดขาดเส้นทางการเดินทางจนหมดสิ้น สุนัขเหล่านั้นก็ถูกทอดทิ้งขณะที่เหล่าสุนัขที่ชาญฉลาดและกล้าหาญ ซึ่งประกอบด้วย มายา จ่าฝูงผู้สง่างามชอร์ตตี จอมดื้อรั้น และ แม็กซ์ลูกสุนัขที่อยู่ระหว่างฝึกฝนตัวเองเพื่อเป็นจ่าฝูงในอนาคตกำลังต่อสู้เพื่อเอาชีวิตรอดท่ามกลางฤดูหนาวที่แสนโหดเหี้ยมเจอร์รีผู้หัวใจสลายก็มุ่งมั่นที่จะออกปฏิบัติการช่วยชีวิตที่ดูเหมือนเป็นไปไม่ได้ภายใต้ความช่วยเหลือจาก เคที (มูน บลัดกู๊ด) นักบินสาวผู้รักการผจญภัยด้วยสายใยผูกพันจากมิตรภาพที่ยั่งยืนทั้งมนุษย์และสุนัขจะต้องร่วมผจญการเดินทางที่ต้องอาศัยความเด็ดเดี่ยว ความอดทนและความเชื่อ เพื่อพบกันและกันอีกครั้งในดินแดนที่งดงามแต่อันตรายนี
General
Unique ID                                : 145284265444603544405104996751068393323 (0x6D4CBB5272AFD4DB63A2D0AEE2346F6B)
Complete name                            : D:\อัพหนัง\Eight.Below.2006.1080p.BrRip.DTS.x264_hdfile4you.clubhd4you.net.mkv
Format                                   : Matroska
Format version                           : Version 4 / Version 2
File size                                : 3.43 GiB
Duration                                 : 2h 0mn
Overall bit rate                         : 4 075 Kbps
Movie name                               : Eight.Below.2006.1080p.BrRip.DTS.x264_hdfile4you.clubhd4you.net
Encoded date                             : UTC 2019-05-05 12:43:21
Writing application                      : mkvmerge v33.1.0 ('Primrose') 64-bit
Writing library                          : libebml v1.3.7 + libmatroska v1.5.0
DURATION                                 : 01:51:36.680000000
NUMBER_OF_FRAMES                         : 947
NUMBER_OF_BYTES                          : 4174028
_STATISTICS_WRITING_APP                  : mkvmerge v33.1.0 ('Primrose') 64-bit
_STATISTICS_WRITING_DATE_UTC             : 2019-05-05 12:43:21
_STATISTICS_TAGS                         : BPS DURATION NUMBER_OF_FRAMES NUMBER_OF_BYTES

Video
ID                                       : 1
Format                                   : AVC
Format/Info                              : Advanced Video Codec
Format profile                           : [email protected]
Format settings, CABAC                   : Yes
Format settings, ReFrames                : 1 frame
Format settings, GOP                     : M=1, N=48
Codec ID                                 : V_MPEG4/ISO/AVC
Duration                                 : 2h 0mn
Bit rate                                 : 2 101 Kbps
Width                                    : 1 920 pixels
Height                                   : 800 pixels
Display aspect ratio                     : 2.40:1
Frame rate mode                          : Constant
Frame rate                               : 23.976 fps
Color space                              : YUV
Chroma subsampling                       : 4:2:0
Bit depth                                : 8 bits
Scan type                                : Progressive
Bits/(Pixel*Frame)                       : 0.057
Stream size                              : 1.77 GiB (52%)
Title                                    : Eight.Below.2006.1080p.BrRip.DTS.x264_hdfile4you.clubhd4you.net
Writing library                          : x264 core 155 r2901 7d0ff22
Language                                 : English
Default                                  : Yes
Forced                                   : No
Color primaries                          : BT.709
Transfer characteristics                 : BT.709
Matrix coefficients                      : BT.709

Audio #1
ID                                       : 2
Format                                   : AC-3
Format/Info                              : Audio Coding 3
Mode extension                           : CM (complete main)
Format settings, Endianness              : Big
Codec ID                                 : A_AC3
Duration                                 : 2h 0mn
Bit rate mode                            : Constant
Bit rate                                 : 384 Kbps
Channel(s)                               : 6 channels
Channel positions                        : Front: L C R, Side: L R, LFE
Sampling rate                            : 48.0 KHz
Bit depth                                : 16 bits
Compression mode                         : Lossy
Delay relative to video                  : 79ms
Stream size                              : 331 MiB (9%)
Title                                    : Thai 5.1 Master BY_hdfile4you.clubhd4you.net
Language                                 : Thai
Default                                  : Yes
Forced                                   : Yes

Audio #2
ID                                       : 3
Format                                   : DTS
Format/Info                              : Digital Theater Systems
Mode                                     : 16
Format settings, Endianness              : Big
Codec ID                                 : A_DTS
Duration                                 : 2h 0mn
Bit rate mode                            : Constant
Bit rate                                 : 1 510 Kbps
Channel(s)                               : 6 channels
Channel positions                        : Front: L C R, Side: L R, LFE
Sampling rate                            : 48.0 KHz
Bit depth                                : 24 bits
Compression mode                         : Lossy
Stream size                              : 1.27 GiB (37%)
Title                                    : English DTS BY_hdfile4you.clubhd4you.net
Language                                 : English
Default                                  : No
Forced                                   : No

Text #1
ID                                       : 4
Format                                   : VobSub
Muxing mode                              : zlib
Codec ID                                 : S_VOBSUB
Codec ID/Info                            : The same subtitle format used on DVDs
Title                                    : Thai DVD BY_hdfile4you
Language                                 : Thai
Default                                  : No
Forced                                   : No

Text #2
ID                                       : 5
Format                                   : VobSub
Muxing mode                              : zlib
Codec ID                                 : S_VOBSUB
Codec ID/Info                            : The same subtitle format used on DVDs
Title                                    : Thai 1080p  White BY_hdfile4you
Language                                 : Thai
Default                                  : No
Forced                                   : No

Text #3
ID                                       : 6
Format                                   : VobSub
Muxing mode                              : zlib
Codec ID                                 : S_VOBSUB
Codec ID/Info                            : The same subtitle format used on DVDs
Title                                    : Thai 1080p Gray BY_hdfile4you
Language                                 : Thai
Default                                  : No
Forced                                   : No

Text #4
ID                                       : 7
Format                                   : VobSub
Muxing mode                              : zlib
Codec ID                                 : S_VOBSUB
Codec ID/Info                            : The same subtitle format used on DVDs
Title                                    : Thai 1080p White BY_hdfile4you
Language                                 : Thai
Default                                  : No
Forced                                   : No

Text #5
ID                                       : 8
Format                                   : VobSub
Muxing mode                              : zlib
Codec ID                                 : S_VOBSUB
Codec ID/Info                            : The same subtitle format used on DVDs
Title                                    : Thai 1080p Yellow BY_hdfile4you
Language                                 : Thai
Default                                  : No
Forced                                   : No

Text #6
ID                                       : 9
Format                                   : PGS
Muxing mode                              : zlib
Codec ID                                 : S_HDMV/PGS
Codec ID/Info                            : The same subtitle format used on BDs/HD-DVDs
Title                                    : Thai PGS  BY_hdfile4you
Language                                 : Thai
Default                                  : Yes
Forced                                   : Yes

Text #7
ID                                       : 10
Format                                   : VobSub
Muxing mode                              : zlib
Codec ID                                 : S_VOBSUB
Codec ID/Info                            : The same subtitle format used on DVDs
Title                                    : Englisg BY_hdfile4you
Language                                 : English
Default                                  : No
Forced                                   : No

ดาวน์โหลด

ตรวจสอบสถานะ: ต้องซื้อหรือสิทธิไม่เพียงพอ

กลุ่มผู้ใช้ของคุณ: ผู้เยี่ยมชม

ชื่อไฟล์: Eight Below 
ดาวน์โหลด: 4  ขนาดไฟล์: 3.42 GB 
สิทธิ์ในการดาวน์โหลด: VIP  ขึ้นไป หรือ สมาชิก VIP   [ซื้อวีไอพี]   [ซื้อกลุ่ม VIP]




ขออภัย! คุณไม่ได้รับสิทธิ์ในการดำเนินการในส่วนนี้ กรุณาเลือกอย่างใดอย่างหนึ่ง ลงชื่อเข้าใช้ | ลงทะเบียน

รายละเอียดเครดิต

ปิด

ประกาศจากทางเว็ป Hdfile4youก่อนหน้า /3 ต่อไป

cornfile.com

ประวัติการแบน|อุปกรณ์พกพา|ข้อความล้วน|โหลดหนัง หนังใหม่ เก่า เพลง โหลดฟรี ดูฟรี Hdfile4you

website counter

GMT+7, 2019-5-26 05:51 , Processed in 0.030877 second(s), 27 queries .

Powered by Discuz! X3.4 R20180101, Rev.59

© 2001-2017 Comsenz Inc.

ตอบกระทู้ ขึ้นไปด้านบน ไปที่หน้ารายการกระทู้