โหลดหนัง Hdfile4you

 ลืมรหัสผ่าน
 ลงทะเบียน
Loading...
ค้นหา
ดู: 470|ตอบกลับ: 1

[MiniHQ] Insomnia (2002) : เกมเขย่าขั้วอำมหิต [1080p][พากย์ไทย5.1+อังกฤษDTS][บรรยายไทย+อังกฤษ]

[คัดลอกลิงก์]

 
 ตำเเหน่ง: ผู้ดูแลระบบ

 มีนามว่า:hdfile4you 
สมาชิกคนที่:
เพศ ไม่ระบุ:
กระทู้:282 
โพสต์:291
พลังน้ำใจ:355 
เงิน:464 
ความดี:365 
เครดิต:646
สิทธิ์อ่าน:200 
สมัครเมื่อ:2015-8-16 
ชมล่าสุด:2019-7-15 
ออนไลน์:131 
สถานะใช้งาน:ออฟไลน์
เหรียญเกียรติยศ
ประดับยศนักโพสต์ยอดเยี่ยม ประดับยศนักออนไลน์ยอดเยี่ยม ประดับยศนักแบ่งปันยอดเยี่ยม ประดับยศนักกิจกรรมยอดเยี่ยม ประดับยศนักเชิญชวนยอดเยี่ยม ประดับยศนักเขียนบทความยอดเยี่ยม ประดับยศนักออกแบบยอดเยี่ยม ประดับยศกิตติมศักดิ์ ประดับยศผู้ให้การสนับสนุน ประดับยศผู้ทรงคุณวุฒิ ประดับยศผู้สมัครสมาชิกใหม่ ประดับยศผู้ตั้งโพสต์ ประดับยศผู้ออนไลน์ต่อเนื่อง ประดับยศผู้ร่วมบริจากช่วยเหลือเว็บ


โพสต์ 2019-5-15 20:09:09 | ดู: 470| ตอบกลับ: 1
[MiniHQ] Insomnia (2002) : เกมเขย่าขั้วอำมหิต [1080p][พากย์ไทย5.1+อังกฤษDTS][บรรยายไทย+อังกฤษ]

10698_front.jpg

https://www.imdb.com/title/tt0278504/  7.2/10252,901 votes
ตำรวจรายหนึ่งเดินทางไปพร้อมกับเพื่อนร่วมงาน เพื่อสอบสวนคดีฆาตกรรมในอลาสก้า ดินแดนที่พระอาทิตย์ไม่ยอมตกดิน ที่นั่นตำรวจสาวรายหนึ่งซึ่ง ชื่นชมในผลงานการสอบสวนในอดีตของเขารอต้อนรับอยู่ เขาเริ่มทำการสอบสวนคดีฆ่านักเรียนสาว ก่อนเดินทางมา เขากำลังมีเรื่องขัดแย้งกับเพื่อนร่วมงานคนนี้ เกี่ยวกับเรื่องการถูก Internal Affair สอบสวนเขาอยูมีการดวลปืนกับคนร้ายท่ามกลางสายหมอก เขายิงเพื่อนร่วมงานตาย คนที่รู้เห็นเหตุการณ์คือ คนร้ายในคดีเพียงคนเดียว เขาพยายามกลบเกลื่อนหลักฐาน และสืบหาคนร้ายต่อไปแต่ตำรวจสาวมือใหม่ ซึ่งได้รับหน้าที่ให้สอบสวนคดีเจ้าหน้าที่ถูกยิงตายกลับพบพิรุธบางอย่างในหลักฐานที่เจอ คนร้ายข่มขู่ขอความร่วมมือที่จะให้เขาวางแผนโยนความผิดไปให้แพะสักตัวรับบาปไปในคดีฆาตกรรมนักเรียนเขาจะทำอย่างไรท่ามกลางความขัดแย้งในตัวเอง ที่ต้องสอบสวนคดีฆาตกรรมคดีหนึ่ง และต้องพยายามปกปิดคดีฆาตกรรมอีกคดีหนึ่งโดยมีคนร้ายขู่จะแบ็คเมลล์เขา
General
Unique ID                                : 251660231516436075807454047401818094753 (0xBD53FF60ACCA5A9BB560CB5349AA7CA1)
Complete name                            : Insomnia.2002.1080p.BrRip.DTS.x264_hdfile4you.clubhd4you.net.mkv
Format                                   : Matroska
Format version                           : Version 4
File size                                : 3.78 GiB
Duration                                 : 1 h 58 min
Overall bit rate                         : 4 564 kb/s
Movie name                               : Insomnia.2002.1080p.BrRip.DTS.x264_hdfile4you.clubhd4you.net
Encoded date                             : UTC 2019-05-15 10:27:21
Writing application                      : mkvmerge v10.0.0 ('To Drown In You') 64bit
Writing library                          : libebml v1.3.4 + libmatroska v1.4.5

Video
ID                                       : 1
Format                                   : AVC
Format/Info                              : Advanced Video Codec
Format profile                           : [email protected]
Format settings                          : CABAC / 5 Ref Frames
Format settings, CABAC                   : Yes
Format settings, Reference frames        : 5 frames
Codec ID                                 : V_MPEG4/ISO/AVC
Duration                                 : 1 h 58 min
Bit rate                                 : 3 330 kb/s
Width                                    : 1 920 pixels
Height                                   : 800 pixels
Display aspect ratio                     : 2.40:1
Frame rate mode                          : Constant
Frame rate                               : 23.976 (24000/1001) FPS
Color space                              : YUV
Chroma subsampling                       : 4:2:0
Bit depth                                : 8 bits
Scan type                                : Progressive
Bits/(Pixel*Frame)                       : 0.090
Stream size                              : 2.75 GiB (73%)
Title                                    : Insomnia.2002.1080p.BrRip.DTS.x264_hdfile4you.clubhd4you.net
Writing library                          : x264 core 144 r2525 40bb568
Encoding settings                        : cabac=1 / ref=5 / deblock=1:1:1 / analyse=0x3:0x113 / me=umh / subme=10 / psy=1 / psy_rd=1.00:0.00 / mixed_ref=1 / me_range=48 / chroma_me=1 / trellis=2 / 8x8dct=1 / cqm=0 / deadzone=21,11 / fast_pskip=1 / chroma_qp_offset=-4 / threads=6 / lookahead_threads=1 / sliced_threads=0 / nr=0 / decimate=1 / interlaced=0 / bluray_compat=0 / constrained_intra=0 / bframes=5 / b_pyramid=2 / b_adapt=1 / b_bias=0 / direct=3 / weightb=1 / open_gop=0 / weightp=2 / keyint=250 / keyint_min=23 / scenecut=40 / intra_refresh=0 / rc_lookahead=40 / rc=2pass / mbtree=1 / bitrate=3330 / ratetol=1.0 / qcomp=0.60 / qpmin=0 / qpmax=69 / qpstep=4 / cplxblur=20.0 / qblur=0.5 / vbv_maxrate=14000 / vbv_bufsize=14000 / nal_hrd=none / filler=0 / ip_ratio=1.40 / aq=1:1.00
Language                                 : English
Default                                  : Yes
Forced                                   : No

Audio #1
ID                                       : 2
Format                                   : AC-3
Format/Info                              : Audio Coding 3
Commercial name                          : Dolby Digital
Codec ID                                 : A_AC3
Duration                                 : 1 h 58 min
Bit rate mode                            : Constant
Bit rate                                 : 448 kb/s
Channel(s)                               : 6 channels
Channel layout                           : L R C LFE Ls Rs
Sampling rate                            : 48.0 kHz
Frame rate                               : 31.250 FPS (1536 SPF)
Bit depth                                : 16 bits
Compression mode                         : Lossy
Delay relative to video                  : 14 s 0 ms
Stream size                              : 380 MiB (10%)
Title                                    : THAI Master 5.1 By_hdfile4you.clubhd4you.net
Language                                 : Thai
Service kind                             : Complete Main
Default                                  : Yes
Forced                                   : Yes

Audio #2
ID                                       : 3
Format                                   : DTS
Format/Info                              : Digital Theater Systems
Codec ID                                 : A_DTS
Duration                                 : 1 h 58 min
Bit rate mode                            : Constant
Bit rate                                 : 755 kb/s
Channel(s)                               : 6 channels
Channel layout                           : C L R Ls Rs LFE
Sampling rate                            : 48.0 kHz
Frame rate                               : 93.750 FPS (512 SPF)
Bit depth                                : 24 bits
Compression mode                         : Lossy
Stream size                              : 638 MiB (16%)
Title                                    : English DTS By_hdfile4you.clubhd4you.net
Language                                 : English
Default                                  : No
Forced                                   : No

Text #1
ID                                       : 4
Format                                   : VobSub
Muxing mode                              : zlib
Codec ID                                 : S_VOBSUB
Codec ID/Info                            : Picture based subtitle format used on DVDs
Duration                                 : 1 h 51 min
Bit rate                                 : 1 700 b/s
Count of elements                        : 1265
Stream size                              : 1.36 MiB (0%)
Title                                    : THAI 480p DVD Master By_hdfile4you
Language                                 : Thai
Default                                  : No
Forced                                   : No

Text #2
ID                                       : 5
Format                                   : VobSub
Muxing mode                              : zlib
Codec ID                                 : S_VOBSUB
Codec ID/Info                            : Picture based subtitle format used on DVDs
Duration                                 : 1 h 52 min
Bit rate                                 : 5 269 b/s
Count of elements                        : 1266
Stream size                              : 4.26 MiB (0%)
Title                                    : THAI 1080p By_hdfile4you
Language                                 : Thai
Default                                  : No
Forced                                   : No

Text #3
ID                                       : 6
Format                                   : VobSub
Muxing mode                              : zlib
Codec ID                                 : S_VOBSUB
Codec ID/Info                            : Picture based subtitle format used on DVDs
Duration                                 : 1 h 52 min
Bit rate                                 : 5 270 b/s
Count of elements                        : 1266
Stream size                              : 4.26 MiB (0%)
Title                                    : THAI 1080p Yellow By_hdfile4you
Language                                 : Thai
Default                                  : No
Forced                                   : No

Text #4
ID                                       : 7
Format                                   : VobSub
Muxing mode                              : zlib
Codec ID                                 : S_VOBSUB
Codec ID/Info                            : Picture based subtitle format used on DVDs
Duration                                 : 1 h 52 min
Bit rate                                 : 5 705 b/s
Count of elements                        : 1266
Stream size                              : 4.61 MiB (0%)
Title                                    : THAI 1080p Out By_hdfile4you
Language                                 : Thai
Default                                  : No
Forced                                   : No

Text #5
ID                                       : 8
Format                                   : PGS
Muxing mode                              : zlib
Codec ID                                 : S_HDMV/PGS
Codec ID/Info                            : Picture based subtitle format used on BDs/HD-DVDs
Duration                                 : 1 h 52 min
Bit rate                                 : 15.6 kb/s
Count of elements                        : 2532
Stream size                              : 12.6 MiB (0%)
Title                                    : THAI PGS 1080p By_hdfile4you
Language                                 : Thai
Default                                  : Yes
Forced                                   : Yes

Text #6
ID                                       : 9
Format                                   : PGS
Muxing mode                              : zlib
Codec ID                                 : S_HDMV/PGS
Codec ID/Info                            : Picture based subtitle format used on BDs/HD-DVDs
Duration                                 : 1 h 52 min
Bit rate                                 : 17.0 kb/s
Count of elements                        : 2532
Stream size                              : 13.7 MiB (0%)
Title                                    : THAI PGS 1080p Out By_hdfile4you
Language                                 : Thai
Default                                  : No
Forced                                   : No

Text #7
ID                                       : 10
Format                                   : UTF-8
Codec ID                                 : S_TEXT/UTF8
Codec ID/Info                            : UTF-8 Plain Text
Duration                                 : 1 h 48 min
Bit rate                                 : 53 b/s
Count of elements                        : 1118
Stream size                              : 42.9 KiB (0%)
Title                                    : ENG SRT By_hdfile4you
Language                                 : English
Default                                  : No
Forced                                   : No
1 GB / PART
Download (ไม่อัพโหลด Google Drive แทน)

ลิ๊งเดียวจบ
*** ถ้าโหลดไม่ได้แสดงว่าติด Limit ต้องรอพรุ่งนี้เพราะคนโหลดเยอะนะครับ ***
ลิ๊งเดียวจบ
Download
PASS : http://hdfile4you.clubhd4you.net/
*** ถ้าโหลดไม่ได้แสดงว่าติด Limit ต้องรอพรุ่งนี้เพราะคนโหลดเยอะนะครับ ***
SuperHQ 1080p
Download
MiniHQ 1080p


ตั้งชื่อไฟล์ตามแบบนี้เท่านั้น
1.Insomnia.part1.rar
2.Insomnia.part2.rar
3.Insomnia.part3.rar
4.Insomnia.part4.rar

ปล.  -- Winrar ใส่ Recovery Record 5% ทุกไฟล์ครับ --



 
 ตำเเหน่ง: Legend World

 มีนามว่า:Hataau 
สมาชิกคนที่:71 
เพศ: ชาย
กระทู้:
โพสต์:943
พลังน้ำใจ:919 
เงิน:1177 
ความดี:919 
เครดิต:1862
สิทธิ์อ่าน:70 
สมัครเมื่อ:2015-8-29 
ชมล่าสุด:2019-8-25 
ออนไลน์:423 
สถานะใช้งาน:ออฟไลน์
เหรียญเกียรติยศ
ประดับยศผู้ร่วมบริจากช่วยเหลือเว็บ ประดับยศผู้สมัครสมาชิกใหม่


โพสต์ 2019-5-16 19:47:44
Thank you big movie
ขออภัย! คุณไม่ได้รับสิทธิ์ในการดำเนินการในส่วนนี้ กรุณาเลือกอย่างใดอย่างหนึ่ง ลงชื่อเข้าใช้ | ลงทะเบียน

รายละเอียดเครดิต

ปิด

ประกาศจากทางเว็ป Hdfile4youก่อนหน้า /3 ต่อไป

cornfile.com

ประวัติการแบน|อุปกรณ์พกพา|ข้อความล้วน|โหลดหนัง หนังใหม่ เก่า เพลง โหลดฟรี ดูฟรี Hdfile4you

GMT+7, 2019-8-26 02:44 , Processed in 0.036442 second(s), 29 queries .

Powered by Discuz! X3.4 R20180101, Rev.59

© 2001-2017 Comsenz Inc.

ตอบกระทู้ ขึ้นไปด้านบน ไปที่หน้ารายการกระทู้