โหลดหนัง Hdfile4you

 ลืมรหัสผ่าน
 ลงทะเบียน
Loading...
ค้นหา
ดู: 424|ตอบกลับ: 1

[FullHQ+SuperHQ มาสเตอร์มาแล้ว] White Boy Rick (2018) : จอมทรหด [1080p][Soundtrack บรรยายไทย]

[คัดลอกลิงก์]

 
 ตำเเหน่ง: ผู้ดูแลระบบ

 มีนามว่า:admin 
สมาชิกคนที่:
เพศ: ชาย
กระทู้:3708 
โพสต์:4733
พลังน้ำใจ:100747 
เงิน:100916 
ความดี:100747 
เครดิต:105480
สิทธิ์อ่าน:200 
สมัครเมื่อ:2015-8-12 
ชมล่าสุด:2019-8-14 
ออนไลน์:2780 
สถานะใช้งาน:ออฟไลน์
เหรียญเกียรติยศ
ประดับยศนักโพสต์ยอดเยี่ยม ประดับยศนักแบ่งปันยอดเยี่ยม ประดับยศนักกิจกรรมยอดเยี่ยม ประดับยศนักเชิญชวนยอดเยี่ยม ประดับยศนักเขียนบทความยอดเยี่ยม ประดับยศนักออกแบบยอดเยี่ยม ประดับยศกิตติมศักดิ์ ประดับยศผู้ให้การสนับสนุน ประดับยศผู้ตั้งโพสต์ ประดับยศผู้ทรงคุณวุฒิ ประดับยศผู้สมัครสมาชิกใหม่ ประดับยศผู้ออนไลน์ต่อเนื่อง ประดับยศนักออนไลน์ยอดเยี่ยม


โพสต์ 2019-5-16 20:59:23 | ดู: 424| ตอบกลับ: 1
[FullHQ+SuperHQ มาสเตอร์มาแล้ว] White Boy Rick (2018) : จอมทรหด [1080p][Soundtrack บรรยายไทย]

215723_front.jpg

https://www.imdb.com/title/tt4537896/  6.4/1015,414 votes
ริค จอมทรหด  เป็นเรื่องจริงที่เกิดขึ้นในปี 1987 ที่เมือง Detroit ในช่วงที่มีการแพร่ระบาดของยาเสพติด ของกรรมกรพ่อลูก Rick Wershe Jr. ซึ่งกลายเป็นสายลับให้แก่ตำรวจ แต่ต่อมาพวกเขาผันตัวเป็นตัวแทนจำหน่ายยาเสพติดแทน!!!
General
Unique ID                                : 207413595851517808572418190033148967906 (0x9C0A67CFA83C9EE4830B02715FE3FBE2)
Complete name                            : White.Boy.Rick.2018.1080p.BrRip.DTS.x264.SUBTH_hdfile4you.clubhd4you.net.mkv
Format                                   : Matroska
Format version                           : Version 4
File size                                : 3.59 GiB
Duration                                 : 1 h 51 min
Overall bit rate                         : 4 625 kb/s
Movie name                               : White.Boy.Rick.2018.1080p.BrRip.DTS.x264.SUBTH_hdfile4you.clubhd4you.net
Encoded date                             : UTC 2019-05-15 13:34:33
Writing application                      : mkvmerge v10.0.0 ('To Drown In You') 64bit
Writing library                          : libebml v1.3.4 + libmatroska v1.4.5

Video
ID                                       : 1
Format                                   : AVC
Format/Info                              : Advanced Video Codec
Format profile                           : [email protected]
Format settings                          : CABAC / 4 Ref Frames
Format settings, CABAC                   : Yes
Format settings, Reference frames        : 4 frames
Codec ID                                 : V_MPEG4/ISO/AVC
Duration                                 : 1 h 51 min
Bit rate                                 : 3 738 kb/s
Width                                    : 1 920 pixels
Height                                   : 804 pixels
Display aspect ratio                     : 2.40:1
Frame rate mode                          : Constant
Frame rate                               : 23.976 (24000/1001) FPS
Color space                              : YUV
Chroma subsampling                       : 4:2:0
Bit depth                                : 8 bits
Scan type                                : Progressive
Bits/(Pixel*Frame)                       : 0.101
Stream size                              : 2.90 GiB (81%)
Title                                    : White.Boy.Rick.2018.1080p.BrRip.DTS.x264.SUBTH_hdfile4you.clubhd4you.net
Writing library                          : x264 core 130 r2273 b3065e6
Encoding settings                        : cabac=1 / ref=3 / deblock=1:0:0 / analyse=0x3:0x113 / me=umh / subme=11 / psy=1 / psy_rd=1.00:0.00 / mixed_ref=1 / me_range=48 / chroma_me=1 / trellis=2 / 8x8dct=1 / cqm=0 / deadzone=21,11 / fast_pskip=1 / chroma_qp_offset=-2 / threads=10 / lookahead_threads=1 / sliced_threads=0 / nr=0 / decimate=1 / interlaced=0 / bluray_compat=0 / constrained_intra=0 / bframes=3 / b_pyramid=2 / b_adapt=1 / b_bias=0 / direct=1 / weightb=1 / open_gop=0 / weightp=2 / keyint=240 / keyint_min=24 / scenecut=40 / intra_refresh=0 / rc_lookahead=40 / rc=2pass / mbtree=1 / bitrate=3738 / ratetol=1.0 / qcomp=0.60 / qpmin=0 / qpmax=69 / qpstep=4 / cplxblur=20.0 / qblur=0.5 / ip_ratio=1.40 / aq=1:1.00
Language                                 : English
Default                                  : Yes
Forced                                   : No
Color range                              : Limited
Color primaries                          : BT.709
Transfer characteristics                 : BT.709
Matrix coefficients                      : BT.709

Audio
ID                                       : 2
Format                                   : DTS
Format/Info                              : Digital Theater Systems
Codec ID                                 : A_DTS
Duration                                 : 1 h 51 min
Bit rate mode                            : Constant
Bit rate                                 : 755 kb/s
Channel(s)                               : 6 channels
Channel layout                           : C L R Ls Rs LFE
Sampling rate                            : 48.0 kHz
Frame rate                               : 93.750 FPS (512 SPF)
Bit depth                                : 24 bits
Compression mode                         : Lossy
Stream size                              : 600 MiB (16%)
Title                                    : English DTS
Language                                 : English
Default                                  : No
Forced                                   : No

Text #1
ID                                       : 3
Format                                   : VobSub
Muxing mode                              : zlib
Codec ID                                 : S_VOBSUB
Codec ID/Info                            : Picture based subtitle format used on DVDs
Duration                                 : 1 h 51 min
Bit rate                                 : 2 232 b/s
Count of elements                        : 1561
Stream size                              : 1.77 MiB (0%)
Title                                    : Thai 480p
Language                                 : Thai
Default                                  : No
Forced                                   : No

Text #2
ID                                       : 4
Format                                   : VobSub
Muxing mode                              : zlib
Codec ID                                 : S_VOBSUB
Codec ID/Info                            : Picture based subtitle format used on DVDs
Duration                                 : 1 h 51 min
Bit rate                                 : 4 102 b/s
Count of elements                        : 1561
Stream size                              : 3.26 MiB (0%)
Title                                    : Thai 720p
Language                                 : Thai
Default                                  : No
Forced                                   : No

Text #3
ID                                       : 5
Format                                   : VobSub
Muxing mode                              : zlib
Codec ID                                 : S_VOBSUB
Codec ID/Info                            : Picture based subtitle format used on DVDs
Duration                                 : 1 h 51 min
Bit rate                                 : 6 635 b/s
Count of elements                        : 1561
Stream size                              : 5.27 MiB (0%)
Title                                    : Thai 1080p
Language                                 : Thai
Default                                  : Yes
Forced                                   : Yes

Text #4
ID                                       : 6
Format                                   : VobSub
Muxing mode                              : zlib
Codec ID                                 : S_VOBSUB
Codec ID/Info                            : Picture based subtitle format used on DVDs
Duration                                 : 1 h 51 min
Bit rate                                 : 6 634 b/s
Count of elements                        : 1561
Stream size                              : 5.27 MiB (0%)
Title                                    : Thai 1080p Yellow
Language                                 : Thai
Default                                  : No
Forced                                   : No

Text #5
ID                                       : 7
Format                                   : VobSub
Muxing mode                              : zlib
Codec ID                                 : S_VOBSUB
Codec ID/Info                            : Picture based subtitle format used on DVDs
Duration                                 : 1 h 51 min
Bit rate                                 : 6 664 b/s
Count of elements                        : 1561
Stream size                              : 5.29 MiB (0%)
Title                                    : Thai 1080p Out
Language                                 : Thai
Default                                  : No
Forced                                   : No

Text #6
ID                                       : 8
Format                                   : VobSub
Muxing mode                              : zlib
Codec ID                                 : S_VOBSUB
Codec ID/Info                            : Picture based subtitle format used on DVDs
Duration                                 : 1 h 51 min
Bit rate                                 : 8 689 b/s
Count of elements                        : 1561
Stream size                              : 6.90 MiB (0%)
Title                                    : Thai 1080p BIG
Language                                 : Thai
Default                                  : No
Forced                                   : No

Text #7
ID                                       : 9
Format                                   : VobSub
Muxing mode                              : zlib
Codec ID                                 : S_VOBSUB
Codec ID/Info                            : Picture based subtitle format used on DVDs
Duration                                 : 1 h 51 min
Bit rate                                 : 8 726 b/s
Count of elements                        : 1561
Stream size                              : 6.93 MiB (0%)
Title                                    : Thai 1080p Out [BIG]
Language                                 : Thai
Default                                  : No
Forced                                   : No

Text #8
ID                                       : 10
Format                                   : PGS
Muxing mode                              : zlib
Codec ID                                 : S_HDMV/PGS
Codec ID/Info                            : Picture based subtitle format used on BDs/HD-DVDs
Duration                                 : 1 h 51 min
Bit rate                                 : 21.6 kb/s
Count of elements                        : 3122
Stream size                              : 17.1 MiB (0%)
Title                                    : Thai PGS
Language                                 : Thai
Default                                  : No
Forced                                   : No

Text #9
ID                                       : 11
Format                                   : PGS
Muxing mode                              : zlib
Codec ID                                 : S_HDMV/PGS
Codec ID/Info                            : Picture based subtitle format used on BDs/HD-DVDs
Duration                                 : 1 h 51 min
Bit rate                                 : 22.1 kb/s
Count of elements                        : 3122
Stream size                              : 17.6 MiB (0%)
Title                                    : Thai PGS Yellow
Language                                 : Thai
Default                                  : No
Forced                                   : No

Text #10
ID                                       : 12
Format                                   : PGS
Muxing mode                              : zlib
Codec ID                                 : S_HDMV/PGS
Codec ID/Info                            : Picture based subtitle format used on BDs/HD-DVDs
Duration                                 : 1 h 51 min
Bit rate                                 : 21.8 kb/s
Count of elements                        : 3122
Stream size                              : 17.3 MiB (0%)
Title                                    : Thai PGS Out
Language                                 : Thai
Default                                  : No
Forced                                   : No

Text #11
ID                                       : 13
Format                                   : PGS
Muxing mode                              : zlib
Codec ID                                 : S_HDMV/PGS
Codec ID/Info                            : Picture based subtitle format used on BDs/HD-DVDs
Duration                                 : 1 h 44 min
Bit rate                                 : 24.8 kb/s
Count of elements                        : 3506
Stream size                              : 18.5 MiB (1%)
Title                                    : English
Language                                 : English
Default                                  : No
Forced                                   : No
1 GB / PART
Download (ไม่อัพโหลด Google Drive แทน)

ลิ๊งเดียวจบ
*** ถ้าโหลดไม่ได้แสดงว่าติด Limit ต้องรอพรุ่งนี้เพราะคนโหลดเยอะนะครับ ***
ลิ๊งเดียวจบ
PASS : http://hdfile4you.clubhd4you.net/
*** ถ้าโหลดไม่ได้แสดงว่าติด Limit ต้องรอพรุ่งนี้เพราะคนโหลดเยอะนะครับ ***
SuperHQ 1080p
Download
BD Full .m2ts
Download
FullHQ 1080p
SuperHQ 1080p


ตั้งชื่อไฟล์ตามแบบนี้เท่านั้น
1.White Boy Rick.part1.rar
2.White Boy Rick.part2.rar
3.White Boy Rick.part3.rar
4.White Boy Rick.part4.rar

ปล.  -- Winrar ใส่ Recovery Record 5% ทุกไฟล์ครับ --


ลิ๊งค์ไฟล์เสียโหลดไม่ได้ติดโดยตรงได้ที่ >>คลิก<<
http://hdfile4you.clubhd4you.net/

 
 ตำเเหน่ง: Beginner

 มีนามว่า:slotslotonline 
สมาชิกคนที่:3059 
เพศ ไม่ระบุ:
กระทู้:
โพสต์:18
พลังน้ำใจ:23 
เงิน:54 
ความดี:23 
เครดิต:41
สิทธิ์อ่าน:10 
สมัครเมื่อ:2019-3-26 
ชมล่าสุด:2019-8-23 
ออนไลน์:
สถานะใช้งาน:ออนไลน์
คุณยังไม่ได้ใช้เหรียญ
กรุณาคลิกที่นี่เพื่อใช้เหรียญ


โพสต์ 2019-5-29 21:52:13
ขออภัย! คุณไม่ได้รับสิทธิ์ในการดำเนินการในส่วนนี้ กรุณาเลือกอย่างใดอย่างหนึ่ง ลงชื่อเข้าใช้ | ลงทะเบียน

รายละเอียดเครดิต

ปิด

ประกาศจากทางเว็ป Hdfile4youก่อนหน้า /3 ต่อไป

cornfile.com

ประวัติการแบน|อุปกรณ์พกพา|ข้อความล้วน|โหลดหนัง หนังใหม่ เก่า เพลง โหลดฟรี ดูฟรี Hdfile4you

GMT+7, 2019-8-23 22:37 , Processed in 0.045835 second(s), 33 queries .

Powered by Discuz! X3.4 R20180101, Rev.59

© 2001-2017 Comsenz Inc.

ตอบกระทู้ ขึ้นไปด้านบน ไปที่หน้ารายการกระทู้