โหลดหนัง Hdfile4you

 ลืมรหัสผ่าน
 ลงทะเบียน
Loading...
ค้นหา
ดู: 429|ตอบกลับ: 0

[FullHQ+SuperHQ มาสเตอร์มาแล้ว] The Negotiation (2018) [1080p][Soundtrack บรรยายไทย]

[คัดลอกลิงก์]

 
 ตำเเหน่ง: ผู้ดูแลระบบ

 มีนามว่า:admin 
สมาชิกคนที่:
เพศ: ชาย
กระทู้:3708 
โพสต์:4733
พลังน้ำใจ:100747 
เงิน:100916 
ความดี:100747 
เครดิต:105480
สิทธิ์อ่าน:200 
สมัครเมื่อ:2015-8-12 
ชมล่าสุด:2019-8-14 
ออนไลน์:2780 
สถานะใช้งาน:ออฟไลน์
เหรียญเกียรติยศ
ประดับยศนักโพสต์ยอดเยี่ยม ประดับยศนักแบ่งปันยอดเยี่ยม ประดับยศนักกิจกรรมยอดเยี่ยม ประดับยศนักเชิญชวนยอดเยี่ยม ประดับยศนักเขียนบทความยอดเยี่ยม ประดับยศนักออกแบบยอดเยี่ยม ประดับยศกิตติมศักดิ์ ประดับยศผู้ให้การสนับสนุน ประดับยศผู้ตั้งโพสต์ ประดับยศผู้ทรงคุณวุฒิ ประดับยศผู้สมัครสมาชิกใหม่ ประดับยศผู้ออนไลน์ต่อเนื่อง ประดับยศนักออนไลน์ยอดเยี่ยม


โพสต์ 2019-5-19 16:39:50 | ดู: 429| ตอบกลับ: 0
[FullHQ+SuperHQ มาสเตอร์มาแล้ว] The Negotiation (2018) [1080p][Soundtrack บรรยายไทย]

237026_front.jpg

https://www.imdb.com/title/tt6904272/  6.5/10856 votes
เมื่อใดที่ผู้ก่อการร้ายมีข้อเรียกร้อง ย่อมหมายถึงการกดดันต่อรองด้วยชีวิตตัวประกันผู้บริสุทธิ์ งานเดิมพันชีวิตนี้จึงมีเพียง Negotiator (นักเจรจาต่อรอง) มืออาชีพเท่านั้น ที่จะรับมือกับสถานการณ์อันอ่อนไหวและจำกัดเวลา ซนเยจิน กับบทบาท negotiator ที่น่าจับตามองว่าเธอจะรับมือกับวายร้ายอย่างไร เบื้องหลังการก่อการของเขาคืออะไร และที่น่าติดตามยิ่งกว่า เมื่อวายร้ายเลือดเย็นคนนั้น คือ ฮยอนบินที่พลิกบทเกินคาด เป็นตัวร้ายครั้งแรกในชีวิตการแสดง!!!
The Negotiation เป็นภาพยนตร์ที่ทำรายได้ดีอีกเรื่องหนึ่งของปี 2018 ที่ผ่านมา โดยมีนักแสดงนำแม่เหล็กที่ดึงดูดผู้ชม อย่าง ฮยอนบิน และ ซนเยจิน ซึ่งผลงานนี้เป็นการมาร่วมงานกันเป็นครั้งแรกของพวกเขาทั้งสองคน ทั้งๆที่ต่างก็โลดแล่นในวงการมายาวนานร่วม 20 ปีกันทั้งคู่ ซึ่งภาพยนตร์เรื่องนี้ได้ทำออกมาดีสมการรอคอยของผู้ชม
General
Unique ID                                : 235122516993752216480394978029056158024 (0xB0E2F3197F1D9E13AA77C7204679E948)
Complete name                            :The.Negotiation.2018.1080p.BrRip.DTS.x264.SUBTHM_hdfile4you.clubhd4you.net.mkv
Format                                   : Matroska
Format version                           : Version 4
File size                                : 3.86 GiB
Duration                                 : 1 h 52 min
Overall bit rate                         : 4 886 kb/s
Movie name                               : The.Negotiation.2018.1080p.BrRip.DTS.x264.SUBTHM_hdfile4you.clubhd4you.net
Encoded date                             : UTC 2019-05-18 14:45:36
Writing application                      : mkvmerge v10.0.0 ('To Drown In You') 64bit
Writing library                          : libebml v1.3.4 + libmatroska v1.4.5

Video
ID                                       : 1
Format                                   : AVC
Format/Info                              : Advanced Video Codec
Format profile                           : [email protected]
Format settings                          : CABAC / 4 Ref Frames
Format settings, CABAC                   : Yes
Format settings, Reference frames        : 4 frames
Codec ID                                 : V_MPEG4/ISO/AVC
Duration                                 : 1 h 52 min
Bit rate                                 : 4 004 kb/s
Width                                    : 1 920 pixels
Height                                   : 808 pixels
Display aspect ratio                     : 2.40:1
Frame rate mode                          : Constant
Frame rate                               : 24.000 FPS
Color space                              : YUV
Chroma subsampling                       : 4:2:0
Bit depth                                : 8 bits
Scan type                                : Progressive
Bits/(Pixel*Frame)                       : 0.108
Stream size                              : 3.16 GiB (82%)
Title                                    : The.Negotiation.2018.1080p.BrRip.DTS.x264.SUBTHM_hdfile4you.clubhd4you.net
Writing library                          : x264 core 130 r2273 b3065e6
Encoding settings                        : cabac=1 / ref=3 / deblock=1:0:0 / analyse=0x3:0x113 / me=umh / subme=11 / psy=1 / psy_rd=1.00:0.00 / mixed_ref=1 / me_range=48 / chroma_me=1 / trellis=2 / 8x8dct=1 / cqm=0 / deadzone=21,11 / fast_pskip=1 / chroma_qp_offset=-2 / threads=10 / lookahead_threads=1 / sliced_threads=0 / nr=0 / decimate=1 / interlaced=0 / bluray_compat=0 / constrained_intra=0 / bframes=3 / b_pyramid=2 / b_adapt=1 / b_bias=0 / direct=1 / weightb=1 / open_gop=0 / weightp=2 / keyint=240 / keyint_min=24 / scenecut=40 / intra_refresh=0 / rc_lookahead=40 / rc=2pass / mbtree=1 / bitrate=4004 / ratetol=1.0 / qcomp=0.60 / qpmin=0 / qpmax=69 / qpstep=4 / cplxblur=20.0 / qblur=0.5 / ip_ratio=1.40 / aq=1:1.00
Language                                 : Korean
Default                                  : Yes
Forced                                   : No
Color range                              : Limited
Color primaries                          : BT.709
Transfer characteristics                 : BT.709
Matrix coefficients                      : BT.709

Audio
ID                                       : 2
Format                                   : DTS
Format/Info                              : Digital Theater Systems
Codec ID                                 : A_DTS
Duration                                 : 1 h 52 min
Bit rate mode                            : Constant
Bit rate                                 : 768 kb/s
Channel(s)                               : 6 channels
Channel layout                           : C L R Ls Rs LFE
Sampling rate                            : 48.0 kHz
Frame rate                               : 93.750 FPS (512 SPF)
Bit depth                                : 16 bits
Compression mode                         : Lossy
Stream size                              : 620 MiB (16%)
Title                                    : English DTS By_hdfile4you.clubhd4you.net
Language                                 : English
Default                                  : Yes
Forced                                   : No

Text #1
ID                                       : 3
Format                                   : VobSub
Muxing mode                              : zlib
Codec ID                                 : S_VOBSUB
Codec ID/Info                            : Picture based subtitle format used on DVDs
Duration                                 : 1 h 52 min
Bit rate                                 : 2 084 b/s
Count of elements                        : 1418
Stream size                              : 1.68 MiB (0%)
Title                                    : Thai 480p From DVD Master
Language                                 : Thai
Default                                  : No
Forced                                   : No

Text #2
ID                                       : 4
Format                                   : VobSub
Muxing mode                              : zlib
Codec ID                                 : S_VOBSUB
Codec ID/Info                            : Picture based subtitle format used on DVDs
Duration                                 : 1 h 52 min
Bit rate                                 : 3 833 b/s
Count of elements                        : 1418
Stream size                              : 3.09 MiB (0%)
Title                                    : Thai 720p
Language                                 : Thai
Default                                  : No
Forced                                   : No

Text #3
ID                                       : 5
Format                                   : VobSub
Muxing mode                              : zlib
Codec ID                                 : S_VOBSUB
Codec ID/Info                            : Picture based subtitle format used on DVDs
Duration                                 : 1 h 52 min
Bit rate                                 : 6 208 b/s
Count of elements                        : 1418
Stream size                              : 5.01 MiB (0%)
Title                                    : Thai 1080p
Language                                 : Thai
Default                                  : Yes
Forced                                   : Yes

Text #4
ID                                       : 6
Format                                   : VobSub
Muxing mode                              : zlib
Codec ID                                 : S_VOBSUB
Codec ID/Info                            : Picture based subtitle format used on DVDs
Duration                                 : 1 h 52 min
Bit rate                                 : 6 203 b/s
Count of elements                        : 1418
Stream size                              : 5.01 MiB (0%)
Title                                    : Thai 1080p Yellow
Language                                 : Thai
Default                                  : No
Forced                                   : No

Text #5
ID                                       : 7
Format                                   : VobSub
Muxing mode                              : zlib
Codec ID                                 : S_VOBSUB
Codec ID/Info                            : Picture based subtitle format used on DVDs
Duration                                 : 1 h 52 min
Bit rate                                 : 6 222 b/s
Count of elements                        : 1418
Stream size                              : 5.02 MiB (0%)
Title                                    : Thai 1080p Out
Language                                 : Thai
Default                                  : No
Forced                                   : No

Text #6
ID                                       : 8
Format                                   : VobSub
Muxing mode                              : zlib
Codec ID                                 : S_VOBSUB
Codec ID/Info                            : Picture based subtitle format used on DVDs
Duration                                 : 1 h 52 min
Bit rate                                 : 8 121 b/s
Count of elements                        : 1418
Stream size                              : 6.56 MiB (0%)
Title                                    : Thai 1080p BIG
Language                                 : Thai
Default                                  : No
Forced                                   : No

Text #7
ID                                       : 9
Format                                   : VobSub
Muxing mode                              : zlib
Codec ID                                 : S_VOBSUB
Codec ID/Info                            : Picture based subtitle format used on DVDs
Duration                                 : 1 h 52 min
Bit rate                                 : 8 140 b/s
Count of elements                        : 1418
Stream size                              : 6.57 MiB (0%)
Title                                    : Thai 1080p Out [BIG]
Language                                 : Thai
Default                                  : No
Forced                                   : No

Text #8
ID                                       : 10
Format                                   : PGS
Muxing mode                              : zlib
Codec ID                                 : S_HDMV/PGS
Codec ID/Info                            : Picture based subtitle format used on BDs/HD-DVDs
Duration                                 : 1 h 52 min
Bit rate                                 : 20.0 kb/s
Count of elements                        : 2836
Stream size                              : 16.1 MiB (0%)
Title                                    : Thai PGS
Language                                 : Thai
Default                                  : No
Forced                                   : No

Text #9
ID                                       : 11
Format                                   : PGS
Muxing mode                              : zlib
Codec ID                                 : S_HDMV/PGS
Codec ID/Info                            : Picture based subtitle format used on BDs/HD-DVDs
Duration                                 : 1 h 52 min
Bit rate                                 : 20.5 kb/s
Count of elements                        : 2836
Stream size                              : 16.5 MiB (0%)
Title                                    : Thai PGS Yellow
Language                                 : Thai
Default                                  : No
Forced                                   : No

Text #10
ID                                       : 12
Format                                   : PGS
Muxing mode                              : zlib
Codec ID                                 : S_HDMV/PGS
Codec ID/Info                            : Picture based subtitle format used on BDs/HD-DVDs
Duration                                 : 1 h 52 min
Bit rate                                 : 20.2 kb/s
Count of elements                        : 2836
Stream size                              : 16.3 MiB (0%)
Title                                    : Thai PGS Out
Language                                 : Thai
Default                                  : No
Forced                                   : No

Text #11
ID                                       : 13
Format                                   : PGS
Muxing mode                              : zlib
Codec ID                                 : S_HDMV/PGS
Codec ID/Info                            : Picture based subtitle format used on BDs/HD-DVDs
Duration                                 : 1 h 47 min
Bit rate                                 : 10.8 kb/s
Count of elements                        : 2800
Stream size                              : 8.33 MiB (0%)
Title                                    : English
Language                                 : English
Default                                  : No
Forced                                   : No
1 GB / PART
Download (ไม่อัพโหลด Google Drive แทน)

ลิ๊งเดียวจบ
*** ถ้าโหลดไม่ได้แสดงว่าติด Limit ต้องรอพรุ่งนี้เพราะคนโหลดเยอะนะครับ ***
ลิ๊งเดียวจบ
PASS : http://hdfile4you.clubhd4you.net/
*** ถ้าโหลดไม่ได้แสดงว่าติด Limit ต้องรอพรุ่งนี้เพราะคนโหลดเยอะนะครับ ***
SuperHQ 1080p
Download
BD Full .m2ts
Download
FullHQ 1080p
SuperHQ 1080p


ตั้งชื่อไฟล์ตามแบบนี้เท่านั้น
1.The Negotiation.part1.rar
2.The Negotiation.part2.rar
3.The Negotiation.part3.rar
4.The Negotiation.part4.rar

ปล.  -- Winrar ใส่ Recovery Record 5% ทุกไฟล์ครับ --


ลิ๊งค์ไฟล์เสียโหลดไม่ได้ติดโดยตรงได้ที่ >>คลิก<<
http://hdfile4you.clubhd4you.net/
ขออภัย! คุณไม่ได้รับสิทธิ์ในการดำเนินการในส่วนนี้ กรุณาเลือกอย่างใดอย่างหนึ่ง ลงชื่อเข้าใช้ | ลงทะเบียน

รายละเอียดเครดิต

ปิด

ประกาศจากทางเว็ป Hdfile4youก่อนหน้า /3 ต่อไป

cornfile.com

ประวัติการแบน|อุปกรณ์พกพา|ข้อความล้วน|โหลดหนัง หนังใหม่ เก่า เพลง โหลดฟรี ดูฟรี Hdfile4you

GMT+7, 2019-8-23 22:10 , Processed in 0.037897 second(s), 27 queries .

Powered by Discuz! X3.4 R20180101, Rev.59

© 2001-2017 Comsenz Inc.

ตอบกระทู้ ขึ้นไปด้านบน ไปที่หน้ารายการกระทู้