โหลดหนัง Hdfile4you

 ลืมรหัสผ่าน
 ลงทะเบียน
ค้นหา
ดู: 432|ตอบกลับ: 0

[FullHQ+SuperHQ มาสเตอร์มาแล้ว] The Mule (2018) : เดอะ มิวล์ [1080p][Soundtrack บรรยายไทย]

[คัดลอกลิงก์]

 
 ตำเเหน่ง: ผู้ดูแลระบบ

 มีนามว่า:admin 
สมาชิกคนที่:
เพศ: ชาย
กระทู้:3724 
โพสต์:4749
พลังน้ำใจ:100765 
เงิน:100936 
ความดี:100765 
เครดิต:105514
สิทธิ์อ่าน:200 
สมัครเมื่อ:2015-8-12 
ชมล่าสุด:2019-8-25 
ออนไลน์:2783 
สถานะใช้งาน:ออฟไลน์
เหรียญเกียรติยศ
ประดับยศนักโพสต์ยอดเยี่ยม ประดับยศนักแบ่งปันยอดเยี่ยม ประดับยศนักกิจกรรมยอดเยี่ยม ประดับยศนักเชิญชวนยอดเยี่ยม ประดับยศนักเขียนบทความยอดเยี่ยม ประดับยศนักออกแบบยอดเยี่ยม ประดับยศกิตติมศักดิ์ ประดับยศผู้ให้การสนับสนุน ประดับยศผู้ตั้งโพสต์ ประดับยศผู้ทรงคุณวุฒิ ประดับยศผู้สมัครสมาชิกใหม่ ประดับยศผู้ออนไลน์ต่อเนื่อง ประดับยศนักออนไลน์ยอดเยี่ยม


โพสต์ 2019-5-19 16:50:16 | ดู: 432| ตอบกลับ: 0
[FullHQ+SuperHQ มาสเตอร์มาแล้ว] The Mule (2018) : เดอะ มิวล์ [1080p][Soundtrack บรรยายไทย]

227174_front.jpg

https://www.imdb.com/title/tt7959026/  7.1/1053,450 votes
The Mule เป็นเรื่องราวของชายชาวไร่วัย 90 ปี และยังเคยเป็นทหารผ่านศึกในสงครามโลกครั้งที่สอง ในภายหลังได้ผันตัวมาเป็นคนขับรถรับส่งของ แต่เรื่องราวเกิดขึ้นเมื่อเขาถูกจับได้โดยตำรวจของสหรัฐอเมริกา ในขณะที่ขนส่งโคเคนมูลค่า 3 ล้านเหรียญของแก๊งค้ายาเสพติดเม็กซิกัน!!!
General
Unique ID                                : 201889338478581866799079495818898172409 (0x97E278E4E82EE38FAD9030B34DE9E9F9)
Complete name                            : The.Mule.2018.1080p.BrRip.DTS.x264.SUBTHM_hdfile4you.clubhd4you.net.mkv
Format                                   : Matroska
Format version                           : Version 4
File size                                : 3.52 GiB
Duration                                 : 1 h 56 min
Overall bit rate                         : 4 321 kb/s
Movie name                               : The.Mule.2018.1080p.BrRip.DTS.x264.SUBTHM_hdfile4you.clubhd4you.net
Encoded date                             : UTC 2019-05-18 14:55:50
Writing application                      : mkvmerge v10.0.0 ('To Drown In You') 64bit
Writing library                          : libebml v1.3.4 + libmatroska v1.4.5

Video
ID                                       : 1
Format                                   : AVC
Format/Info                              : Advanced Video Codec
Format profile                           : [email protected]
Format settings                          : CABAC / 4 Ref Frames
Format settings, CABAC                   : Yes
Format settings, Reference frames        : 4 frames
Codec ID                                 : V_MPEG4/ISO/AVC
Duration                                 : 1 h 56 min
Bit rate                                 : 3 505 kb/s
Width                                    : 1 920 pixels
Height                                   : 804 pixels
Display aspect ratio                     : 2.40:1
Frame rate mode                          : Constant
Frame rate                               : 23.976 (24000/1001) FPS
Color space                              : YUV
Chroma subsampling                       : 4:2:0
Bit depth                                : 8 bits
Scan type                                : Progressive
Bits/(Pixel*Frame)                       : 0.095
Stream size                              : 2.85 GiB (81%)
Title                                    : The.Mule.2018.1080p.BrRip.DTS.x264.SUBTHM_hdfile4you.clubhd4you.net
Writing library                          : x264 core 130 r2273 b3065e6
Encoding settings                        : cabac=1 / ref=3 / deblock=1:0:0 / analyse=0x3:0x113 / me=umh / subme=11 / psy=1 / psy_rd=1.00:0.00 / mixed_ref=1 / me_range=48 / chroma_me=1 / trellis=2 / 8x8dct=1 / cqm=0 / deadzone=21,11 / fast_pskip=1 / chroma_qp_offset=-2 / threads=10 / lookahead_threads=1 / sliced_threads=0 / nr=0 / decimate=1 / interlaced=0 / bluray_compat=0 / constrained_intra=0 / bframes=3 / b_pyramid=2 / b_adapt=1 / b_bias=0 / direct=1 / weightb=1 / open_gop=0 / weightp=2 / keyint=240 / keyint_min=24 / scenecut=40 / intra_refresh=0 / rc_lookahead=40 / rc=2pass / mbtree=1 / bitrate=3505 / ratetol=1.0 / qcomp=0.60 / qpmin=0 / qpmax=69 / qpstep=4 / cplxblur=20.0 / qblur=0.5 / ip_ratio=1.40 / aq=1:1.00
Language                                 : English
Default                                  : Yes
Forced                                   : No
Color range                              : Limited
Color primaries                          : BT.709
Transfer characteristics                 : BT.709
Matrix coefficients                      : BT.709

Audio
ID                                       : 2
Format                                   : DTS
Format/Info                              : Digital Theater Systems
Codec ID                                 : A_DTS
Duration                                 : 1 h 56 min
Bit rate mode                            : Constant
Bit rate                                 : 755 kb/s
Channel(s)                               : 6 channels
Channel layout                           : C L R Ls Rs LFE
Sampling rate                            : 48.0 kHz
Frame rate                               : 93.750 FPS (512 SPF)
Bit depth                                : 24 bits
Compression mode                         : Lossy
Stream size                              : 628 MiB (17%)
Title                                    : English DTS
Language                                 : English
Default                                  : Yes
Forced                                   : No

Text #1
ID                                       : 3
Format                                   : VobSub
Muxing mode                              : zlib
Codec ID                                 : S_VOBSUB
Codec ID/Info                            : Picture based subtitle format used on DVDs
Duration                                 : 1 h 55 min
Bit rate                                 : 1 832 b/s
Count of elements                        : 1516
Stream size                              : 1.51 MiB (0%)
Title                                    : Thai 480p
Language                                 : Thai
Default                                  : No
Forced                                   : No

Text #2
ID                                       : 4
Format                                   : VobSub
Muxing mode                              : zlib
Codec ID                                 : S_VOBSUB
Codec ID/Info                            : Picture based subtitle format used on DVDs
Duration                                 : 1 h 55 min
Bit rate                                 : 3 318 b/s
Count of elements                        : 1516
Stream size                              : 2.74 MiB (0%)
Title                                    : Thai 720p
Language                                 : Thai
Default                                  : No
Forced                                   : No

Text #3
ID                                       : 5
Format                                   : VobSub
Muxing mode                              : zlib
Codec ID                                 : S_VOBSUB
Codec ID/Info                            : Picture based subtitle format used on DVDs
Duration                                 : 1 h 55 min
Bit rate                                 : 4 858 b/s
Count of elements                        : 1516
Stream size                              : 4.01 MiB (0%)
Title                                    : Thai 1080p
Language                                 : Thai
Default                                  : Yes
Forced                                   : Yes

Text #4
ID                                       : 6
Format                                   : VobSub
Muxing mode                              : zlib
Codec ID                                 : S_VOBSUB
Codec ID/Info                            : Picture based subtitle format used on DVDs
Duration                                 : 1 h 55 min
Bit rate                                 : 4 859 b/s
Count of elements                        : 1516
Stream size                              : 4.01 MiB (0%)
Title                                    : Thai 1080p Yellow
Language                                 : Thai
Default                                  : No
Forced                                   : No

Text #5
ID                                       : 7
Format                                   : VobSub
Muxing mode                              : zlib
Codec ID                                 : S_VOBSUB
Codec ID/Info                            : Picture based subtitle format used on DVDs
Duration                                 : 1 h 55 min
Bit rate                                 : 4 858 b/s
Count of elements                        : 1516
Stream size                              : 4.01 MiB (0%)
Title                                    : Thai 1080p Out
Language                                 : Thai
Default                                  : No
Forced                                   : No

Text #6
ID                                       : 8
Format                                   : VobSub
Muxing mode                              : zlib
Codec ID                                 : S_VOBSUB
Codec ID/Info                            : Picture based subtitle format used on DVDs
Duration                                 : 1 h 55 min
Bit rate                                 : 6 992 b/s
Count of elements                        : 1516
Stream size                              : 5.77 MiB (0%)
Title                                    : Thai 1080p BIG
Language                                 : Thai
Default                                  : No
Forced                                   : No

Text #7
ID                                       : 9
Format                                   : PGS
Muxing mode                              : zlib
Codec ID                                 : S_HDMV/PGS
Codec ID/Info                            : Picture based subtitle format used on BDs/HD-DVDs
Duration                                 : 1 h 55 min
Bit rate                                 : 10.5 kb/s
Count of elements                        : 3039
Stream size                              : 8.64 MiB (0%)
Title                                    : Thai PGS BluRay Master
Language                                 : Thai
Default                                  : No
Forced                                   : No

Text #8
ID                                       : 10
Format                                   : PGS
Muxing mode                              : zlib
Codec ID                                 : S_HDMV/PGS
Codec ID/Info                            : Picture based subtitle format used on BDs/HD-DVDs
Duration                                 : 1 h 55 min
Bit rate                                 : 10.5 kb/s
Count of elements                        : 3032
Stream size                              : 8.62 MiB (0%)
Title                                    : Thai PGS Out
Language                                 : Thai
Default                                  : No
Forced                                   : No

Text #9
ID                                       : 11
Format                                   : PGS
Muxing mode                              : zlib
Codec ID                                 : S_HDMV/PGS
Codec ID/Info                            : Picture based subtitle format used on BDs/HD-DVDs
Duration                                 : 1 h 47 min
Bit rate                                 : 12.5 kb/s
Count of elements                        : 3402
Stream size                              : 9.57 MiB (0%)
Title                                    : English
Language                                 : English
Default                                  : No
Forced                                   : No
1 GB / PART
Download (ไม่อัพโหลด Google Drive แทน)

ลิ๊งเดียวจบ
*** ถ้าโหลดไม่ได้แสดงว่าติด Limit ต้องรอพรุ่งนี้เพราะคนโหลดเยอะนะครับ ***
ลิ๊งเดียวจบ
PASS : http://hdfile4you.clubhd4you.net/
*** ถ้าโหลดไม่ได้แสดงว่าติด Limit ต้องรอพรุ่งนี้เพราะคนโหลดเยอะนะครับ ***
SuperHQ 1080p
Download
BD Full .m2ts
Download
FullHQ 1080p
SuperHQ 1080p


ตั้งชื่อไฟล์ตามแบบนี้เท่านั้น
1.The Mule.part1.rar
2.The Mule.part2.rar
3.The Mule.part3.rar
4.The Mule.part4.rar

ปล.  -- Winrar ใส่ Recovery Record 5% ทุกไฟล์ครับ --


ลิ๊งค์ไฟล์เสียโหลดไม่ได้ติดโดยตรงได้ที่ >>คลิก<<
http://hdfile4you.clubhd4you.net/
ขออภัย! คุณไม่ได้รับสิทธิ์ในการดำเนินการในส่วนนี้ กรุณาเลือกอย่างใดอย่างหนึ่ง ลงชื่อเข้าใช้ | ลงทะเบียน

รายละเอียดเครดิต

ปิด

ประกาศจากทางเว็ป Hdfile4youก่อนหน้า /3 ต่อไป

cornfile.com

ประวัติการแบน|อุปกรณ์พกพา|ข้อความล้วน|โหลดหนัง หนังใหม่ เก่า เพลง โหลดฟรี ดูฟรี Hdfile4you

GMT+7, 2019-8-26 04:33 , Processed in 0.057879 second(s), 31 queries .

Powered by Discuz! X3.4 R20180101, Rev.59

© 2001-2017 Comsenz Inc.

ตอบกระทู้ ขึ้นไปด้านบน ไปที่หน้ารายการกระทู้