โหลดหนัง Hdfile4you

 ลืมรหัสผ่าน
 ลงทะเบียน
ค้นหา
ดู: 290|ตอบกลับ: 2

[MiniHQ จัดให้นักสะสม] Phantoms (1998) : แฟนท่อมส์ อสุรกาย..ดูดล้างเมือง [1080p][พากย์ไทย5.1+อังกฤษDTS][บรรยายไทย+อังกฤษ]

[คัดลอกลิงก์]

 
 ตำเเหน่ง: ผู้ดูแลระบบ

 มีนามว่า:hdfile4you 
สมาชิกคนที่:
เพศ ไม่ระบุ:
กระทู้:262 
โพสต์:270
พลังน้ำใจ:326 
เงิน:425 
ความดี:336 
เครดิต:596
สิทธิ์อ่าน:200 
สมัครเมื่อ:2015-8-16 
ชมล่าสุด:2019-6-15 
ออนไลน์:115 
สถานะใช้งาน:ออฟไลน์
เหรียญเกียรติยศ
ประดับยศนักโพสต์ยอดเยี่ยม ประดับยศนักออนไลน์ยอดเยี่ยม ประดับยศนักแบ่งปันยอดเยี่ยม ประดับยศนักกิจกรรมยอดเยี่ยม ประดับยศนักเชิญชวนยอดเยี่ยม ประดับยศนักเขียนบทความยอดเยี่ยม ประดับยศนักออกแบบยอดเยี่ยม ประดับยศกิตติมศักดิ์ ประดับยศผู้ให้การสนับสนุน ประดับยศผู้ทรงคุณวุฒิ ประดับยศผู้สมัครสมาชิกใหม่ ประดับยศผู้ตั้งโพสต์ ประดับยศผู้ออนไลน์ต่อเนื่อง ประดับยศผู้ร่วมบริจากช่วยเหลือเว็บ


โพสต์ 2019-6-2 08:22:53 | ดู: 290| ตอบกลับ: 2
[MiniHQ จัดให้นักสะสม] Phantoms (1998) : แฟนท่อมส์ อสุรกาย..ดูดล้างเมือง [1080p][พากย์ไทย5.1+อังกฤษDTS][บรรยายไทย+อังกฤษ]

5fx33q.jpg

http://www.imdb.com/title/tt0119891/   X-Men: Apocalypse(2016) on IMDb
เกิดเหตุการณ์สยองขวัญขึ้นในเมืองสโนว์ฟิลด์ ผู้คนหายตัวไปอย่างลึกลับและมีศพที่ถูกหั่นเป็นชิ้นเล็ก โดยทิ้งเครื่องประดับของเหยื่อไว้อย่างน่าฉงน..สองพี่น้อง เจนนี่ และ ลิซ่า มาพบเหตุขวัญผวาในเมืองนี้ และได้พบกับทีมของนายอำเภอ แฮมมอนด์ พร้อมผู้ช่วยที่มาสอบสวนคดี แล้วทั้งหมดก็พบกับข้อความปริศนาบนกระจกซึ่งเป็นเหตุให้ต้องพาตัว ดร.ไฟลท์ เจ้าของชื่อบนกระจกนั้นมาเพื่อไขปมปริศนาฆ่าล้างเมืองครั้งนี้ และสิ่งที่ทุกคนได้พบคือความสยดสยองจากอสุรกายที่แฝงตัวอยู่ใต้โลก ซึ่งตามทำลายล้างมนุษย์มาตั้งแต่สมัยดึกดำบรรพ์ !
General
Unique ID                                : 184635202824300905631257521854835992327 (0x8AE77253C531BA7F9A1C56BCBE822707)
Complete name                            : D:\อัพหนัง\Phantoms.1998.1080p.BrRip.DTS.x264_hdfile4you.clubhd4you.net.mkv
Format                                   : Matroska
Format version                           : Version 4 / Version 2
File size                                : 3.53 GiB
Duration                                 : 1h 36mn
Overall bit rate                         : 5 267 Kbps
Movie name                               : Phantoms.1998.1080p.BrRip.DTS.x264_hdfile4you.clubhd4you.net
Encoded date                             : UTC 2010-02-22 21:41:31
Writing application                      : mkvmerge v5.9.0 ('On The Loose') built on Dec  9 2012 15:37:01
Writing library                          : libebml v1.3.0 + libmatroska v1.4.0

Video
ID                                       : 1
Format                                   : AVC
Format/Info                              : Advanced Video Codec
Format profile                           : [email protected]
Format settings, CABAC                   : Yes
Format settings, ReFrames                : 4 frames
Muxing mode                              : Header stripping
Codec ID                                 : V_MPEG4/ISO/AVC
Duration                                 : 1h 36mn
Bit rate                                 : 4 032 Kbps
Width                                    : 1 920 pixels
Height                                   : 1 080 pixels
Display aspect ratio                     : 16:9
Frame rate mode                          : Constant
Frame rate                               : 23.976 fps
Color space                              : YUV
Chroma subsampling                       : 4:2:0
Bit depth                                : 8 bits
Scan type                                : Progressive
Bits/(Pixel*Frame)                       : 0.081
Stream size                              : 2.66 GiB (75%)
Title                                    : Phantoms.1998.1080p.BrRip.DTS.x264_hdfile4you.clubhd4you.net
Writing library                          : x264 core 144 r2525 40bb568
Encoding settings                        : cabac=1 / ref=4 / deblock=1:1:1 / analyse=0x3:0x113 / me=umh / subme=10 / psy=1 / psy_rd=1.00:0.00 / mixed_ref=1 / me_range=32 / chroma_me=1 / trellis=2 / 8x8dct=1 / cqm=0 / deadzone=21,11 / fast_pskip=1 / chroma_qp_offset=-4 / threads=6 / lookahead_threads=1 / sliced_threads=0 / nr=0 / decimate=1 / interlaced=0 / bluray_compat=0 / constrained_intra=0 / bframes=4 / b_pyramid=2 / b_adapt=1 / b_bias=0 / direct=3 / weightb=1 / open_gop=0 / weightp=2 / keyint=250 / keyint_min=23 / scenecut=40 / intra_refresh=0 / rc_lookahead=40 / rc=2pass / mbtree=1 / bitrate=4032 / ratetol=1.0 / qcomp=0.60 / qpmin=0 / qpmax=69 / qpstep=4 / cplxblur=20.0 / qblur=0.5 / vbv_maxrate=14000 / vbv_bufsize=14000 / nal_hrd=none / filler=0 / ip_ratio=1.40 / aq=1:1.00
Language                                 : English
Default                                  : Yes
Forced                                   : Yes

Audio #1
ID                                       : 2
Format                                   : AC-3
Format/Info                              : Audio Coding 3
Mode extension                           : CM (complete main)
Format settings, Endianness              : Big
Muxing mode                              : Header stripping
Codec ID                                 : A_AC3
Duration                                 : 1h 36mn
Bit rate mode                            : Constant
Bit rate                                 : 448 Kbps
Channel(s)                               : 6 channels
Channel positions                        : Front: L C R, Side: L R, LFE
Sampling rate                            : 48.0 KHz
Bit depth                                : 16 bits
Compression mode                         : Lossy
Delay relative to video                  : 1s 0ms
Stream size                              : 308 MiB (9%)
Title                                    : THAI Master 5.1 By_hdfile4you.clubhd4you.net
Language                                 : Thai
Default                                  : Yes
Forced                                   : Yes

Audio #2
ID                                       : 3
Format                                   : DTS
Format/Info                              : Digital Theater Systems
Mode                                     : 16
Format settings, Endianness              : Big
Muxing mode                              : Header stripping
Codec ID                                 : A_DTS
Duration                                 : 1h 36mn
Bit rate mode                            : Constant
Bit rate                                 : 755 Kbps
Channel(s)                               : 6 channels
Channel positions                        : Front: L C R, Side: L R, LFE
Sampling rate                            : 48.0 KHz
Bit depth                                : 24 bits
Compression mode                         : Lossy
Stream size                              : 518 MiB (14%)
Title                                    : English DTS By_hdfile4you.clubhd4you.net
Language                                 : English
Default                                  : No
Forced                                   : No

Text #1
ID                                       : 4
Format                                   : VobSub
Muxing mode                              : zlib
Codec ID                                 : S_VOBSUB
Codec ID/Info                            : The same subtitle format used on DVDs
Title                                    : THAI 480p By_hdfile4you.clubhd4you.net
Language                                 : Thai
Default                                  : No
Forced                                   : No

Text #2
ID                                       : 5
Format                                   : VobSub
Muxing mode                              : zlib
Codec ID                                 : S_VOBSUB
Codec ID/Info                            : The same subtitle format used on DVDs
Title                                    : THAI 1080p
Language                                 : Thai
Default                                  : No
Forced                                   : No

Text #3
ID                                       : 6
Format                                   : VobSub
Muxing mode                              : zlib
Codec ID                                 : S_VOBSUB
Codec ID/Info                            : The same subtitle format used on DVDs
Title                                    : THAI 1080p Yellow By_hdfile4you.clubhd4you.net
Language                                 : Thai
Default                                  : No
Forced                                   : No

Text #4
ID                                       : 7
Format                                   : VobSub
Muxing mode                              : zlib
Codec ID                                 : S_VOBSUB
Codec ID/Info                            : The same subtitle format used on DVDs
Title                                    : THAI 1080p Out By_hdfile4you.clubhd4you.net
Language                                 : Thai
Default                                  : No
Forced                                   : No

Text #5
ID                                       : 8
Format                                   : PGS
Muxing mode                              : zlib
Codec ID                                 : S_HDMV/PGS
Codec ID/Info                            : The same subtitle format used on BDs/HD-DVDs
Title                                    : THAI PGS 1080p By_hdfile4you.clubhd4you.net
Language                                 : Thai
Default                                  : Yes
Forced                                   : Yes

Text #6
ID                                       : 9
Format                                   : PGS
Muxing mode                              : zlib
Codec ID                                 : S_HDMV/PGS
Codec ID/Info                            : The same subtitle format used on BDs/HD-DVDs
Title                                    : THAI PGS 1080p Out By_hdfile4you.clubhd4you.net
Language                                 : Thai
Default                                  : No
Forced                                   : No

Text #7
ID                                       : 10
Format                                   : UTF-8
Codec ID                                 : S_TEXT/UTF8
Codec ID/Info                            : UTF-8 Plain Text
Title                                    : ENG SRT
Language                                 : English
Default                                  : No
Forced                                   : No
1 GB / PART
Download (ไม่อัพโหลด Google Drive แทน)

ลิ๊งเดียวจบ
*** ถ้าโหลดไม่ได้แสดงว่าติด Limit ต้องรอพรุ่งนี้เพราะคนโหลดเยอะนะครับ ***
ลิ๊งเดียวจบ
PASS : http://hdfile4you.clubhd4you.net/
*** ถ้าโหลดไม่ได้แสดงว่าติด Limit ต้องรอพรุ่งนี้เพราะคนโหลดเยอะนะครับ ***
SuperHQ 1080p
Download
MiniHQ 1080p


ตั้งชื่อไฟล์ตามแบบนี้เท่านั้น
1.Phantoms.part1.rar
2.Phantoms.part2.rar
3.Phantoms.part3.rar
4.Phantoms.part4.rar

ปล.  -- Winrar ใส่ Recovery Record 5% ทุกไฟล์ครับ --



 
 ตำเเหน่ง: Senior

 มีนามว่า:Pajok 
สมาชิกคนที่:210 
เพศ ไม่ระบุ:
กระทู้:
โพสต์:152
พลังน้ำใจ:338 
เงิน:828 
ความดี:338 
เครดิต:490
สิทธิ์อ่าน:30 
สมัครเมื่อ:2015-9-28 
ชมล่าสุด:2019-6-16 
ออนไลน์:123 
สถานะใช้งาน:ออฟไลน์
เหรียญเกียรติยศ
ประดับยศผู้สมัครสมาชิกใหม่


โพสต์ 2019-6-2 15:53:31
Thank you

 
 ตำเเหน่ง: Junior

 มีนามว่า:boydmlion 
สมาชิกคนที่:2878 
เพศ ไม่ระบุ:
กระทู้:
โพสต์:29
พลังน้ำใจ:55 
เงิน:129 
ความดี:55 
เครดิต:84
สิทธิ์อ่าน:20 
สมัครเมื่อ:2019-1-12 
ชมล่าสุด:2019-6-15 
ออนไลน์:71 
สถานะใช้งาน:ออฟไลน์
คุณยังไม่ได้ใช้เหรียญ
กรุณาคลิกที่นี่เพื่อใช้เหรียญ


โพสต์ 2019-6-3 11:19:43
ขอบคุณมากครับ
ขออภัย! คุณไม่ได้รับสิทธิ์ในการดำเนินการในส่วนนี้ กรุณาเลือกอย่างใดอย่างหนึ่ง ลงชื่อเข้าใช้ | ลงทะเบียน

รายละเอียดเครดิต

ปิด

ประกาศจากทางเว็ป Hdfile4youก่อนหน้า /3 ต่อไป

cornfile.com

ประวัติการแบน|อุปกรณ์พกพา|ข้อความล้วน|โหลดหนัง หนังใหม่ เก่า เพลง โหลดฟรี ดูฟรี Hdfile4you

GMT+7, 2019-6-16 08:07 , Processed in 0.065255 second(s), 35 queries .

Powered by Discuz! X3.4, Rev.60 Beta 3

© 2001-2019 Comsenz Inc.

ตอบกระทู้ ขึ้นไปด้านบน ไปที่หน้ารายการกระทู้