โหลดหนัง Hdfile4you

 ลืมรหัสผ่าน
 ลงทะเบียน
Loading...
ค้นหา
ดู: 386|ตอบกลับ: 0

[ใหม่ ร้อนๆ!!! ชัดกว่าเดิม!] Godzilla: King of the Monsters (2019) : ก็อดซิลล่า 2: ราชันแห่งมอนสเตอร์ [720p][พากย์ไทยโรง2.0+อังกฤษ2.0]

[คัดลอกลิงก์]

 
 ตำเเหน่ง: ผู้ดูแลระบบ

 มีนามว่า:admin 
สมาชิกคนที่:
เพศ: ชาย
กระทู้:3708 
โพสต์:4733
พลังน้ำใจ:100747 
เงิน:100914 
ความดี:100747 
เครดิต:105480
สิทธิ์อ่าน:200 
สมัครเมื่อ:2015-8-12 
ชมล่าสุด:2019-8-14 
ออนไลน์:2780 
สถานะใช้งาน:ออฟไลน์
เหรียญเกียรติยศ
ประดับยศนักโพสต์ยอดเยี่ยม ประดับยศนักแบ่งปันยอดเยี่ยม ประดับยศนักกิจกรรมยอดเยี่ยม ประดับยศนักเชิญชวนยอดเยี่ยม ประดับยศนักเขียนบทความยอดเยี่ยม ประดับยศนักออกแบบยอดเยี่ยม ประดับยศกิตติมศักดิ์ ประดับยศผู้ให้การสนับสนุน ประดับยศผู้ตั้งโพสต์ ประดับยศผู้ทรงคุณวุฒิ ประดับยศผู้สมัครสมาชิกใหม่ ประดับยศผู้ออนไลน์ต่อเนื่อง ประดับยศนักออนไลน์ยอดเยี่ยม


โพสต์ 2019-6-6 20:42:59 | ดู: 386| ตอบกลับ: 0
[ใหม่ ร้อนๆ!!! ชัดกว่าเดิม!] Godzilla: King of the Monsters (2019) : ก็อดซิลล่า 2: ราชันแห่งมอนสเตอร์ [720p][พากย์ไทยโรง2.0+อังกฤษ2.0]
MV5BOGFjYWNkM.jpg

https://www.imdb.com/title/tt3741700/  6.8/1026,423 votes
Godzilla 2 King of the Monsters เรื่องราวครั้งใหม่นี้กล่าวถึงความพยายามของ โมนาร์ซ สถาบันวิจัยสิ่งมีชีวิตขนาดยักษ์ที่ไม่สามารถระบุได้ เมื่อเหล่าสมาชิกในองค์กรต้องพบกับการต่อสู้กันระหว่างเหล่ามอนสเตอร์ยักษ์ ก็อตซิลล่า ปะทะกับ มอธร่า, โรแดน และคู่ปรับตัวฉกาจอย่าง คิงกิโดร่า เหล่าสัตว์ประหลาดโบราณไม่เป็นเพียงแค่ตำนาน พวกมันฟื้นขึ้นมาอีกครั้ง จึงต้องต่อสู้กันเพื่อความเป็นสุดยอด สะเทือนถึงการดำรงอยู่ของเผ่าพันธ์มนุษย์ที่เหมือนแขวนอยู่บนเส้นด้ายเต็มที!
Format                      : Matroska
Format version              : Version 4
File size                   : 2.77 GiB
Duration                    : 2 h 1 min
Overall bit rate            : 3 250 kb/s
Movie name                  : Godzilla King of the Monsters.2019.720p.HDCAM.THR2.0.x264

Video
ID                          : 1
Format                      : AVC
Format/Info                 : Advanced Video Codec
Format profile              : [email protected]
Format settings             : CABAC / 6 Ref Frames
Format settings, CABAC      : Yes
Format settings, Reference  : 6 frames
Codec ID                    : V_MPEG4/ISO/AVC
Duration                    : 2 h 1 min
Bit rate mode               : Variable
Bit rate                    : 2 639 kb/s
Maximum bit rate            : 16.4 Mb/s
Width                       : 1 280 pixels
Height                      : 536 pixels
Display aspect ratio        : 2.40:1
Frame rate mode             : Constant
Frame rate                  : 23.976 (24000/1001) FPS
Standard                    : Component
Color space                 : YUV
Chroma subsampling          : 4:2:0
Bit depth                   : 8 bits
Scan type                   : Progressive
Bits/(Pixel*Frame)          : 0.160
Stream size                 : 2.25 GiB (81%)
Title                       : Godzilla King of the Monsters.2019.720p.HDCAM.THR2.0.x264
Writing library             : x264 core 148
Encoding settings           : cabac=1 / ref=6 / deblock=1:0:0 / analyse=0x3:0x113 / me=hex / subme=7 / psy=1 / psy_rd=1.00:0.00 / mixed_ref=1 / me_range=16 / chroma_me=1 / trellis=1 / 8x8dct=1 / cqm=1 / deadzone=21,11 / fast_pskip=1 / chroma_qp_offset=-2 / threads=12 / lookahead_threads=2 / sliced_threads=0 / slices=1 / nr=0 / decimate=1 / interlaced=0 / minigop=0 / stitchable=1 / constrained_intra=0 / bframes=3 / b_pyramid=0 / b_adapt=1 / b_bias=0 / direct=1 / weightb=1 / open_gop=1 / weightp=2 / keyint=250 / keyint_min=23 / scenecut=40 / intra_refresh=0 / rc_lookahead=40 / rc=abr / mbtree=1 / bitrate=2639 / ratetol=1.0 / qcomp=0.60 / qpmin=3 / qpmax=69 / qpstep=4 / vbv_maxrate=16400 / vbv_bufsize=16400 / nal_hrd=vbr / filler=0 / ip_ratio=1.40 / aq=1:1.00
Language                    : English
Default                     : Yes
Forced                      : No
Color range                 : Limited
Color primaries             : BT.709
Transfer characteristics    : BT.709
Matrix coefficients         : BT.709

Audio #1
ID                          : 2
Format                      : AC-3
Format/Info                 : Audio Coding 3
Commercial name             : Dolby Digital
Codec ID                    : A_AC3
Duration                    : 2 h 1 min
Bit rate mode               : Constant
Bit rate                    : 384 kb/s
Channel(s)                  : 2 channels
Channel layout              : L R
Sampling rate               : 48.0 kHz
Frame rate                  : 31.250 FPS (1536 SPF)
Bit depth                   : 16 bits
Compression mode            : Lossy
Stream size                 : 335 MiB (12%)
Title                       : ThaiRong 2.0
Language                    : Thai
Service kind                : Complete Main
Default                     : Yes
Forced                      : Yes

Audio #2
ID                          : 3
Format                      : AC-3
Format/Info                 : Audio Coding 3
Commercial name             : Dolby Digital
Codec ID                    : A_AC3
Duration                    : 2 h 1 min
Bit rate mode               : Constant
Bit rate                    : 224 kb/s
Channel(s)                  : 2 channels
Channel layout              : L R
Sampling rate               : 48.0 kHz
Frame rate                  : 31.250 FPS (1536 SPF)
Bit depth                   : 16 bits
Compression mode            : Lossy
Stream size                 : 195 MiB (7%)
Title                       : English 2.0 @ 224 kb/s
Language                    : English
Service kind                : Complete Main
Default                     : No
Forced                      : No
1 GB / PART
Download (ไม่อัพโหลด Google Drive แทน)

ลิ๊งเดียวจบ
*** ถ้าโหลดไม่ได้แสดงว่าติด Limit ต้องรอพรุ่งนี้เพราะคนโหลดเยอะนะครับ ***
ลิ๊งเดียวจบ
PASS : http://hdfile4you.clubhd4you.net/
*** ถ้าโหลดไม่ได้แสดงว่าติด Limit ต้องรอพรุ่งนี้เพราะคนโหลดเยอะนะครับ ***
SuperHQ 1080p
Download


ตั้งชื่อไฟล์ตามแบบนี้เท่านั้น
1.Godzilla: King of the Monsters.part1.rar
2.Godzilla: King of the Monsters.part2.rar
3.Godzilla: King of the Monsters.part3.rar
4.Godzilla: King of the Monsters.part4.rar

ปล.  -- Winrar ใส่ Recovery Record 5% ทุกไฟล์ครับ --
ลิ๊งค์ไฟล์เสียโหลดไม่ได้ติดโดยตรงได้ที่ >>คลิก<<
http://hdfile4you.clubhd4you.net/
ขออภัย! คุณไม่ได้รับสิทธิ์ในการดำเนินการในส่วนนี้ กรุณาเลือกอย่างใดอย่างหนึ่ง ลงชื่อเข้าใช้ | ลงทะเบียน

รายละเอียดเครดิต

ปิด

ประกาศจากทางเว็ป Hdfile4youก่อนหน้า /3 ต่อไป

cornfile.com

ประวัติการแบน|อุปกรณ์พกพา|ข้อความล้วน|โหลดหนัง หนังใหม่ เก่า เพลง โหลดฟรี ดูฟรี Hdfile4you

GMT+7, 2019-8-19 15:16 , Processed in 0.091801 second(s), 27 queries .

Powered by Discuz! X3.4 R20180101, Rev.59

© 2001-2017 Comsenz Inc.

ตอบกระทู้ ขึ้นไปด้านบน ไปที่หน้ารายการกระทู้