โหลดหนัง Hdfile4you

 ลืมรหัสผ่าน
 ลงทะเบียน
Loading...
ค้นหา
ดู: 263|ตอบกลับ: 2

[SuperHQ] Once Upon a Time in Shanghai (2014) : อึ้ง ทึ่ง สู้ [1080p][พากย์ไทย5.1+จีนDTS][บรรยายไทย+อังกฤษ]

[คัดลอกลิงก์]

 
 ตำเเหน่ง: ผู้ดูแลระบบ

 มีนามว่า:hdfile4you 
สมาชิกคนที่:
เพศ ไม่ระบุ:
กระทู้:282 
โพสต์:291
พลังน้ำใจ:355 
เงิน:464 
ความดี:365 
เครดิต:646
สิทธิ์อ่าน:200 
สมัครเมื่อ:2015-8-16 
ชมล่าสุด:2019-7-15 
ออนไลน์:131 
สถานะใช้งาน:ออฟไลน์
เหรียญเกียรติยศ
ประดับยศนักโพสต์ยอดเยี่ยม ประดับยศนักออนไลน์ยอดเยี่ยม ประดับยศนักแบ่งปันยอดเยี่ยม ประดับยศนักกิจกรรมยอดเยี่ยม ประดับยศนักเชิญชวนยอดเยี่ยม ประดับยศนักเขียนบทความยอดเยี่ยม ประดับยศนักออกแบบยอดเยี่ยม ประดับยศกิตติมศักดิ์ ประดับยศผู้ให้การสนับสนุน ประดับยศผู้ทรงคุณวุฒิ ประดับยศผู้สมัครสมาชิกใหม่ ประดับยศผู้ตั้งโพสต์ ประดับยศผู้ออนไลน์ต่อเนื่อง ประดับยศผู้ร่วมบริจากช่วยเหลือเว็บ


โพสต์ 2019-6-7 18:14:08 | ดู: 263| ตอบกลับ: 2
[SuperHQ] Once Upon a Time in Shanghai (2014) : อึ้ง ทึ่ง สู้ [1080p][พากย์ไทย5.1+จีนDTS][บรรยายไทย+อังกฤษ]

003002kgee.jpg

https://www.imdb.com/title/tt2290567/  6.9/101,769 votes
“หม่า หย่งเจิน” (ฟิลิป อึ้ง) เดินทางมาที่เซี่ยงไฮ้ที่กำลังรุ่งเรืองถึงขีดสุด เขาโตมาพร้อมกับศิลปะการต่อสู้และมือขวาอันหนักหน่วงถึงกับขนาดที่ต้องใส่ กำไรเพื่อรั้งพลังหมัดของเขาไว้ เขาตั้งใจมาที่นี่เพื่อทำงานอย่างสุจริต แต่แล้วสถานการณ์กลับบังคับให้เขาต้องมาเกี่ยวข้องกับกลุ่มแก๊งค์มาเฟีย การต่อสู้เพื่อศักดิ์ศรีและการอยู่รอดจึงได้เริ่มต้นขึ้น
General
Unique ID                                : 201868994312562308929612984196989948978 (0x97DE8DD96E70F356B5B45ACE1EE79432)
Complete name                            : D:\อัพหนัง\Once.Upon.a.Time.in.Shanghai.2014.1080p.BrRip.DTS.x264_hdfile4you.clubhd4you.net.mkv
Format                                   : Matroska
Format version                           : Version 4 / Version 2
File size                                : 3.95 GiB
Duration                                 : 1h 35mn
Overall bit rate                         : 5 948 Kbps
Movie name                               : Once.Upon.a.Time.in.Shanghai.2014.1080p.BrRip.DTS.x264_hdfile4you.clubhd4you.net
Encoded date                             : UTC 2010-02-22 21:41:31
Writing application                      : mkvmerge v5.9.0 ('On The Loose') built on Dec  9 2012 15:37:01
Writing library                          : libebml v1.3.0 + libmatroska v1.4.0

Video
ID                                       : 1
Format                                   : AVC
Format/Info                              : Advanced Video Codec
Format profile                           : [email protected]
Format settings, CABAC                   : Yes
Format settings, ReFrames                : 4 frames
Muxing mode                              : Header stripping
Codec ID                                 : V_MPEG4/ISO/AVC
Duration                                 : 1h 35mn
Bit rate                                 : 4 555 Kbps
Width                                    : 1 920 pixels
Height                                   : 818 pixels
Display aspect ratio                     : 2.35:1
Frame rate mode                          : Constant
Frame rate                               : 24.000 fps
Color space                              : YUV
Chroma subsampling                       : 4:2:0
Bit depth                                : 8 bits
Scan type                                : Progressive
Bits/(Pixel*Frame)                       : 0.121
Stream size                              : 2.98 GiB (75%)
Title                                    : Once.Upon.a.Time.in.Shanghai.2014.1080p.BrRip.DTS.x264_hdfile4you.clubhd4you.net
Writing library                          : x264 core 130 r2273 b3065e6
Encoding settings                        : cabac=1 / ref=4 / deblock=1:0:0 / analyse=0x3:0x113 / me=umh / subme=11 / psy=1 / psy_rd=1.00:0.00 / mixed_ref=1 / me_range=48 / chroma_me=1 / trellis=2 / 8x8dct=1 / cqm=0 / deadzone=21,11 / fast_pskip=1 / chroma_qp_offset=-2 / threads=12 / lookahead_threads=1 / sliced_threads=0 / nr=0 / decimate=1 / interlaced=0 / bluray_compat=0 / constrained_intra=0 / bframes=4 / b_pyramid=2 / b_adapt=2 / b_bias=0 / direct=1 / weightb=1 / open_gop=0 / weightp=2 / keyint=240 / keyint_min=24 / scenecut=40 / intra_refresh=0 / rc_lookahead=40 / rc=2pass / mbtree=1 / bitrate=4555 / ratetol=1.0 / qcomp=0.60 / qpmin=0 / qpmax=69 / qpstep=4 / cplxblur=20.0 / qblur=0.5 / ip_ratio=1.40 / aq=1:1.00
Language                                 : Chinese
Default                                  : Yes
Forced                                   : No
Color primaries                          : BT.709
Transfer characteristics                 : BT.709
Matrix coefficients                      : BT.709

Audio #1
ID                                       : 2
Format                                   : AC-3
Format/Info                              : Audio Coding 3
Mode extension                           : CM (complete main)
Format settings, Endianness              : Big
Muxing mode                              : Header stripping
Codec ID                                 : A_AC3
Duration                                 : 1h 35mn
Bit rate mode                            : Constant
Bit rate                                 : 384 Kbps
Channel(s)                               : 6 channels
Channel positions                        : Front: L C R, Side: L R, LFE
Sampling rate                            : 48.0 KHz
Bit depth                                : 16 bits
Compression mode                         : Lossy
Stream size                              : 261 MiB (6%)
Title                                    : Thai 5.1 Master By_hdfile4you.clubhd4you.net
Language                                 : Thai
Default                                  : Yes
Forced                                   : Yes

Audio #2
ID                                       : 3
Format                                   : DTS
Format/Info                              : Digital Theater Systems
Mode                                     : 16
Format settings, Endianness              : Big
Muxing mode                              : Header stripping
Codec ID                                 : A_DTS
Duration                                 : 1h 35mn
Bit rate mode                            : Constant
Bit rate                                 : 768 Kbps
Channel(s)                               : 6 channels
Channel positions                        : Front: L C R, Side: L R, LFE
Sampling rate                            : 48.0 KHz
Bit depth                                : 24 bits
Compression mode                         : Lossy
Stream size                              : 522 MiB (13%)
Title                                    : Cantonese DTS By_hdfile4you.clubhd4you.net
Language                                 : Chinese
Default                                  : No
Forced                                   : No

Audio #3
ID                                       : 4
Format                                   : AC-3
Format/Info                              : Audio Coding 3
Mode extension                           : CM (complete main)
Format settings, Endianness              : Big
Muxing mode                              : Header stripping
Codec ID                                 : A_AC3
Duration                                 : 1h 35mn
Bit rate mode                            : Constant
Bit rate                                 : 192 Kbps
Channel(s)                               : 6 channels
Channel positions                        : Front: L C R, Side: L R, LFE
Sampling rate                            : 48.0 KHz
Bit depth                                : 16 bits
Compression mode                         : Lossy
Stream size                              : 130 MiB (3%)
Title                                    : Mandarin AC3 5.1 By_hdfile4you.clubhd4you.net
Language                                 : Chinese
Default                                  : No
Forced                                   : No

Text #1
ID                                       : 5
Format                                   : VobSub
Muxing mode                              : zlib
Codec ID                                 : S_VOBSUB
Codec ID/Info                            : The same subtitle format used on DVDs
Title                                    : Thai 480p By_hdfile4you.clubhd4you.net
Language                                 : Thai
Default                                  : No
Forced                                   : No

Text #2
ID                                       : 6
Format                                   : VobSub
Muxing mode                              : zlib
Codec ID                                 : S_VOBSUB
Codec ID/Info                            : The same subtitle format used on DVDs
Title                                    : Thai 720p By_hdfile4you.clubhd4you.net
Language                                 : Thai
Default                                  : No
Forced                                   : No

Text #3
ID                                       : 7
Format                                   : VobSub
Muxing mode                              : zlib
Codec ID                                 : S_VOBSUB
Codec ID/Info                            : The same subtitle format used on DVDs
Title                                    : Thai 1080p By_hdfile4you.clubhd4you.net
Language                                 : Thai
Default                                  : No
Forced                                   : No

Text #4
ID                                       : 8
Format                                   : VobSub
Muxing mode                              : zlib
Codec ID                                 : S_VOBSUB
Codec ID/Info                            : The same subtitle format used on DVDs
Title                                    : Thai 1080p Yellow By_hdfile4you.clubhd4you.net
Language                                 : Thai
Default                                  : No
Forced                                   : No

Text #5
ID                                       : 9
Format                                   : VobSub
Muxing mode                              : zlib
Codec ID                                 : S_VOBSUB
Codec ID/Info                            : The same subtitle format used on DVDs
Title                                    : Thai 1080p Out By_hdfile4you.clubhd4you.net
Language                                 : Thai
Default                                  : No
Forced                                   : No

Text #6
ID                                       : 10
Format                                   : VobSub
Muxing mode                              : zlib
Codec ID                                 : S_VOBSUB
Codec ID/Info                            : The same subtitle format used on DVDs
Title                                    : Thai 1080p BIG By_hdfile4you.clubhd4you.net
Language                                 : Thai
Default                                  : No
Forced                                   : No

Text #7
ID                                       : 11
Format                                   : VobSub
Muxing mode                              : zlib
Codec ID                                 : S_VOBSUB
Codec ID/Info                            : The same subtitle format used on DVDs
Title                                    : Thai 1080p Out [BIG] By_hdfile4you.clubhd4you.net
Language                                 : Thai
Default                                  : No
Forced                                   : No

Text #8
ID                                       : 12
Format                                   : PGS
Muxing mode                              : zlib
Codec ID                                 : S_HDMV/PGS
Codec ID/Info                            : The same subtitle format used on BDs/HD-DVDs
Title                                    : Thai PGS By_hdfile4you.clubhd4you.net
Language                                 : Thai
Default                                  : Yes
Forced                                   : Yes

Text #9
ID                                       : 13
Format                                   : PGS
Muxing mode                              : zlib
Codec ID                                 : S_HDMV/PGS
Codec ID/Info                            : The same subtitle format used on BDs/HD-DVDs
Title                                    : Thai PGS Yellow
Language                                 : Thai
Default                                  : No
Forced                                   : No

Text #10
ID                                       : 14
Format                                   : PGS
Muxing mode                              : zlib
Codec ID                                 : S_HDMV/PGS
Codec ID/Info                            : The same subtitle format used on BDs/HD-DVDs
Title                                    : Thai PGS Out By_hdfile4you.clubhd4you.net
Language                                 : Thai
Default                                  : No
Forced                                   : No

Text #11
ID                                       : 15
Format                                   : VobSub
Muxing mode                              : zlib
Codec ID                                 : S_VOBSUB
Codec ID/Info                            : The same subtitle format used on DVDs
Title                                    : English By_hdfile4you.clubhd4you.net
Language                                 : English
Default                                  : No
Forced                                   : No
1 GB / PART
Download (ไม่อัพโหลด Google Drive แทน)

ลิ๊งเดียวจบ
*** ถ้าโหลดไม่ได้แสดงว่าติด Limit ต้องรอพรุ่งนี้เพราะคนโหลดเยอะนะครับ ***
ลิ๊งเดียวจบ
Download ไม่อัพอัพไฟล์ยาก
PASS : http://hdfile4you.clubhd4you.net/
*** ถ้าโหลดไม่ได้แสดงว่าติด Limit ต้องรอพรุ่งนี้เพราะคนโหลดเยอะนะครับ ***
SuperHQ 1080p
Download
SuperHQ 1080p


ตั้งชื่อไฟล์ตามแบบนี้เท่านั้น
1.Once Upon a Time in Shanghai.part1.rar
2.Once Upon a Time in Shanghai.part2.rar
3.Once Upon a Time in Shanghai.part3.rar
4.Once Upon a Time in Shanghai.part4.rar

ปล.  -- Winrar ใส่ Recovery Record 5% ทุกไฟล์ครับ --



 
 ตำเเหน่ง: Junior

 มีนามว่า:boydmlion 
สมาชิกคนที่:2878 
เพศ ไม่ระบุ:
กระทู้:
โพสต์:41
พลังน้ำใจ:65 
เงิน:161 
ความดี:65 
เครดิต:106
สิทธิ์อ่าน:20 
สมัครเมื่อ:2019-1-12 
ชมล่าสุด:2019-8-9 
ออนไลน์:84 
สถานะใช้งาน:ออฟไลน์
คุณยังไม่ได้ใช้เหรียญ
กรุณาคลิกที่นี่เพื่อใช้เหรียญ


โพสต์ 2019-6-8 09:47:42
ขอบคุณนะครับ สุดยอดเลยยย  

 
 ตำเเหน่ง: Master

 มีนามว่า:Pajok 
สมาชิกคนที่:210 
เพศ ไม่ระบุ:
กระทู้:
โพสต์:164
พลังน้ำใจ:373 
เงิน:910 
ความดี:373 
เครดิต:537
สิทธิ์อ่าน:50 
สมัครเมื่อ:2015-9-28 
ชมล่าสุด:2019-8-14 
ออนไลน์:135 
สถานะใช้งาน:ออฟไลน์
เหรียญเกียรติยศ
ประดับยศผู้สมัครสมาชิกใหม่


โพสต์ 2019-6-23 14:49:53
thank you
ขออภัย! คุณไม่ได้รับสิทธิ์ในการดำเนินการในส่วนนี้ กรุณาเลือกอย่างใดอย่างหนึ่ง ลงชื่อเข้าใช้ | ลงทะเบียน

รายละเอียดเครดิต

ปิด

ประกาศจากทางเว็ป Hdfile4youก่อนหน้า /3 ต่อไป

cornfile.com

ประวัติการแบน|อุปกรณ์พกพา|ข้อความล้วน|โหลดหนัง หนังใหม่ เก่า เพลง โหลดฟรี ดูฟรี Hdfile4you

GMT+7, 2019-8-19 14:34 , Processed in 0.043680 second(s), 31 queries .

Powered by Discuz! X3.4 R20180101, Rev.59

© 2001-2017 Comsenz Inc.

ตอบกระทู้ ขึ้นไปด้านบน ไปที่หน้ารายการกระทู้