โหลดหนัง Hdfile4you

 ลืมรหัสผ่าน
 ลงทะเบียน
ค้นหา
ดู: 1517|ตอบกลับ: 1

[SuperHQ กระทึ่มด้วย THAI-DTS] Tomorrow I will date with yesterday s you (2016) : พรุ่งนี้ผมจะเดตกับเธอคนเมื่อวาน [1080p][พากย์ไทยDTS+ญี่ปุ่นDTS][บรรยายไทย+อังกฤษ]

[คัดลอกลิงก์]

 
 ตำเเหน่ง: ผู้ดูแลระบบ

 มีนามว่า:hdfile4you 
สมาชิกคนที่:
เพศ ไม่ระบุ:
กระทู้:282 
โพสต์:291
พลังน้ำใจ:355 
เงิน:464 
ความดี:365 
เครดิต:646
สิทธิ์อ่าน:200 
สมัครเมื่อ:2015-8-16 
ชมล่าสุด:2019-7-15 
ออนไลน์:131 
สถานะใช้งาน:ออฟไลน์
เหรียญเกียรติยศ
ประดับยศนักโพสต์ยอดเยี่ยม ประดับยศนักออนไลน์ยอดเยี่ยม ประดับยศนักแบ่งปันยอดเยี่ยม ประดับยศนักกิจกรรมยอดเยี่ยม ประดับยศนักเชิญชวนยอดเยี่ยม ประดับยศนักเขียนบทความยอดเยี่ยม ประดับยศนักออกแบบยอดเยี่ยม ประดับยศกิตติมศักดิ์ ประดับยศผู้ให้การสนับสนุน ประดับยศผู้ทรงคุณวุฒิ ประดับยศผู้สมัครสมาชิกใหม่ ประดับยศผู้ตั้งโพสต์ ประดับยศผู้ออนไลน์ต่อเนื่อง ประดับยศผู้ร่วมบริจากช่วยเหลือเว็บ


โพสต์ 2019-6-15 12:25:16 | ดู: 1517| ตอบกลับ: 1
[SuperHQ กระทึ่มด้วย THAI-DTS] Tomorrow I will date with yesterday s you (2016) : พรุ่งนี้ผมจะเดตกับเธอคนเมื่อวาน [1080p][พากย์ไทยDTS+ญี่ปุ่นDTS][บรรยายไทย+อังกฤษ]

MV5BMjQ0Y.jpg

https://www.imdb.com/title/tt5338222/  7.5/102,653 votes
Tomorrow I Will Date With Yesterday s You สร้างจากนิยายชื่อดังที่ที่ฮิตโดนใจหนุ่มสาวทั่วญี่ปุ่น และมียอดจำหน่ายสูงถึง 1 ล้านเล่มใน 2 ปี  
เรื่องราวของ ทาคาโตชิ (โซตะ ฟุคุชิ  ) นักศึกษามหาวิทยาลัย ที่ตกหลุมรักสาวสวยลึกลับ บนรถไฟ เขาตามจีบเธอ จนรู้ว่าเธอชื่อ เอมิ ( นานะ โคมัตสึ ) พวกเขาตกลงจะเดทกัน 30 วัน และ ในวันสุดท้าย เมื่อ ทาคาโตชิ สารภาพรัก กับ เธอ เขาถึงรู้ว่า ความรักของพวกเขาไม่มีวันเป็นไปได้ เพราะ โลกของพวกเขาคือโลกคู่ขนานที่ทุก ๆ 5 ปี เวลาจะมาบรรจบ ทาคาโตชิ  และ เอมิ จะได้เจอกันแค่ 1 ครั้ง ใน 5 ปี  และทุกครั้งที่พวกเขาได้พบกัน เวลาของทาคาโตชิ จะเดินไปข้างหน้า แต่เวลาของเอมิกลับลดอายุเธอลง เรื่อย ๆ .. แต่ถึงแบบนั้น พวกเขา ก็ตัดสินใจ จะกลับมาเจอกันอีกทุก ๆ  5 ปี Tomorrow I Will Date With Yesterday s You ถ่ายทำใน เกียวโต และ โตเกียว ผ่านฤดูกาลต่าง ๆ เราจะได้เห็นทิวทัศน์ฉากที่งดงาม ที่สร้างความผูกพันละหว่าง 2 ตัวละคร สถานที่ ๆ พวกเขา เดทกันทุก ๆ 5 ปี ความทรงจำของความรักที่ ทาคาโตชิ เชื่อว่า คนเราไม่ควรยอมแพ้ให้โชคชะตา คนเราควรต่อสู้และลิขิตโชคชะตาความรักของเราเอง!!!
General
Unique ID                                : 173713874237112127810358946399000483034 (0x82B01341483E05E083603433E99C54DA)
Complete name                            : D:\อัพหนัง\Tomorrow.I.Will.Date.with.Yesterdays.You.2016.1080p.BrRip.THDTS.x264_hdfile4you.clubhd4you.net.mkv
Format                                   : Matroska
Format version                           : Version 4 / Version 2
File size                                : 4.19 GiB
Duration                                 : 1h 50mn
Overall bit rate                         : 5 429 Kbps
Movie name                               : Tomorrow.I.Will.Date.with.Yesterdays.You.2016.1080p.BrRip.THDTS.x264_hdfile4you.clubhd4you.net
Encoded date                             : UTC 2010-02-22 21:41:31
Writing application                      : mkvmerge v5.9.0 ('On The Loose') built on Dec  9 2012 15:37:01
Writing library                          : libebml v1.3.0 + libmatroska v1.4.0

Video
ID                                       : 1
Format                                   : AVC
Format/Info                              : Advanced Video Codec
Format profile                           : [email protected]
Format settings, CABAC                   : Yes
Format settings, ReFrames                : 4 frames
Muxing mode                              : Header stripping
Codec ID                                 : V_MPEG4/ISO/AVC
Duration                                 : 1h 50mn
Bit rate                                 : 3 900 Kbps
Width                                    : 1 920 pixels
Height                                   : 800 pixels
Display aspect ratio                     : 2.40:1
Frame rate mode                          : Constant
Frame rate                               : 23.976 fps
Color space                              : YUV
Chroma subsampling                       : 4:2:0
Bit depth                                : 8 bits
Scan type                                : Progressive
Bits/(Pixel*Frame)                       : 0.106
Stream size                              : 2.94 GiB (70%)
Title                                    : Tomorrow.I.Will.Date.with.Yesterdays.You.2016.1080p.BrRip.THDTS.x264_hdfile4you.clubhd4you.net
Writing library                          : x264 core 142 r2431+42 c69a006 tMod [[email protected] X86_64]
Encoding settings                        : cabac=1 / ref=4 / deblock=1:-3:-3 / analyse=0x3:0x133 / me=umh / subme=11 / psy=1 / fade_compensate=0.00 / psy_rd=1.00:0.15 / mixed_ref=1 / me_range=64 / chroma_me=1 / trellis=2 / 8x8dct=1 / cqm=0 / deadzone=21,11 / fast_pskip=0 / chroma_qp_offset=-3 / threads=12 / lookahead_threads=1 / sliced_threads=0 / nr=0 / decimate=1 / interlaced=0 / bluray_compat=0 / constrained_intra=0 / fgo=0 / bframes=4 / b_pyramid=2 / b_adapt=2 / b_bias=0 / direct=3 / weightb=1 / open_gop=0 / weightp=2 / keyint=240 / keyint_min=23 / scenecut=40 / intra_refresh=0 / rc_lookahead=120 / rc=2pass / mbtree=1 / bitrate=3900 / ratetol=1.0 / qcomp=0.60 / qpmin=0:0:0 / qpmax=37:37:37 / qpstep=4 / cplxblur=20.0 / qblur=0.5 / vbv_maxrate=30000 / vbv_bufsize=38000 / nal_hrd=none / filler=0 / ip_ratio=1.10 / aq=3:0.90 / aq-sensitivity=10.00 / aq-factor=1.00:1.00:1.00 / aq2=0 / aq3=0
Language                                 : Japanese
Default                                  : Yes
Forced                                   : No

Audio #1
ID                                       : 2
Format                                   : DTS
Format/Info                              : Digital Theater Systems
Mode                                     : 16
Format settings, Endianness              : Big
Muxing mode                              : Header stripping
Codec ID                                 : A_DTS
Duration                                 : 1h 50mn
Bit rate mode                            : Constant
Bit rate                                 : 755 Kbps
Channel(s)                               : 6 channels
Channel positions                        : Front: L C R, Side: L R, LFE
Sampling rate                            : 48.0 KHz
Bit depth                                : 24 bits
Compression mode                         : Lossy
Stream size                              : 596 MiB (14%)
Title                                    : Thai DTS BY_hdfile4you.clubhd4you.net
Language                                 : Thai
Default                                  : Yes
Forced                                   : Yes

Audio #2
ID                                       : 3
Format                                   : DTS
Format/Info                              : Digital Theater Systems
Mode                                     : 16
Format settings, Endianness              : Big
Muxing mode                              : Header stripping
Codec ID                                 : A_DTS
Duration                                 : 1h 50mn
Bit rate mode                            : Constant
Bit rate                                 : 755 Kbps
Channel(s)                               : 6 channels
Channel positions                        : Front: L C R, Side: L R, LFE
Sampling rate                            : 48.0 KHz
Bit depth                                : 24 bits
Compression mode                         : Lossy
Stream size                              : 596 MiB (14%)
Title                                    : Japanese DTS BY_hdfile4you.clubhd4you.net
Language                                 : Japanese
Default                                  : No
Forced                                   : No

Text #1
ID                                       : 4
Format                                   : VobSub
Muxing mode                              : zlib
Codec ID                                 : S_VOBSUB
Codec ID/Info                            : The same subtitle format used on DVDs
Title                                    : Thai 1080p BY_hdfile4you.clubhd4you.net
Language                                 : Thai
Default                                  : No
Forced                                   : No

Text #2
ID                                       : 5
Format                                   : PGS
Muxing mode                              : zlib
Codec ID                                 : S_HDMV/PGS
Codec ID/Info                            : The same subtitle format used on BDs/HD-DVDs
Title                                    : Thai PGS BY_hdfile4you.clubhd4you.net
Language                                 : Thai
Default                                  : Yes
Forced                                   : Yes

Text #3
ID                                       : 6
Format                                   : PGS
Muxing mode                              : zlib
Codec ID                                 : S_HDMV/PGS
Codec ID/Info                            : The same subtitle format used on BDs/HD-DVDs
Title                                    : English PGS BY_hdfile4you.clubhd4you.net
Language                                 : English
Default                                  : No
Forced                                   : No
1 GB / PART
Download (ไม่อัพโหลด Google Drive แทน)

ลิ๊งเดียวจบ
*** ถ้าโหลดไม่ได้แสดงว่าติด Limit ต้องรอพรุ่งนี้เพราะคนโหลดเยอะนะครับ ***
ลิ๊งเดียวจบ
PASS : http://hdfile4you.clubhd4you.net/
*** ถ้าโหลดไม่ได้แสดงว่าติด Limit ต้องรอพรุ่งนี้เพราะคนโหลดเยอะนะครับ ***
SuperHQ 1080p
Download
SuperHQ 1080p

ตั้งชื่อไฟล์ตามแบบนี้เท่านั้น
1.Tomorrow I will date with yesterday s you.part1.rar
2.Tomorrow I will date with yesterday s you.part2.rar
3.Tomorrow I will date with yesterday s you.part3.rar
4.Tomorrow I will date with yesterday s you.part4.rar

ปล.  -- Winrar ใส่ Recovery Record 5% ทุกไฟล์ครับ --



 
 ตำเเหน่ง: Junior

 มีนามว่า:boydmlion 
สมาชิกคนที่:2878 
เพศ ไม่ระบุ:
กระทู้:
โพสต์:37
พลังน้ำใจ:62 
เงิน:151 
ความดี:62 
เครดิต:99
สิทธิ์อ่าน:20 
สมัครเมื่อ:2019-1-12 
ชมล่าสุด:2019-7-9 
ออนไลน์:80 
สถานะใช้งาน:ออฟไลน์
คุณยังไม่ได้ใช้เหรียญ
กรุณาคลิกที่นี่เพื่อใช้เหรียญ


โพสต์ 2019-6-15 14:19:45
  ขอบคุณครับบบบบบ  
ขออภัย! คุณไม่ได้รับสิทธิ์ในการดำเนินการในส่วนนี้ กรุณาเลือกอย่างใดอย่างหนึ่ง ลงชื่อเข้าใช้ | ลงทะเบียน

รายละเอียดเครดิต

ปิด

ประกาศจากทางเว็ป Hdfile4youก่อนหน้า /3 ต่อไป

cornfile.com

ประวัติการแบน|อุปกรณ์พกพา|ข้อความล้วน|โหลดหนัง หนังใหม่ เก่า เพลง โหลดฟรี ดูฟรี Hdfile4you

GMT+7, 2019-7-17 06:18 , Processed in 0.042250 second(s), 29 queries .

Powered by Discuz! X3.4 R20180101, Rev.59

© 2001-2017 Comsenz Inc.

ตอบกระทู้ ขึ้นไปด้านบน ไปที่หน้ารายการกระทู้