โหลดหนัง Hdfile4you

 ลืมรหัสผ่าน
 ลงทะเบียน
Loading...
ค้นหา
ดู: 890|ตอบกลับ: 0

[MiniHQ หนังเก่าหายาก] Hang Em High (1969) : กลั่นแค้นไอ้ชาติหิน [1080p][พากย์ไทย2.0+อังกฤษDTS][บรรยายไทย+อังกฤษ]

[คัดลอกลิงก์]

 
 ตำเเหน่ง: ผู้ดูแลระบบ

 มีนามว่า:admin 
สมาชิกคนที่:
เพศ: ชาย
กระทู้:3656 
โพสต์:4680
พลังน้ำใจ:100675 
เงิน:100802 
ความดี:100675 
เครดิต:105355
สิทธิ์อ่าน:200 
สมัครเมื่อ:2015-8-12 
ชมล่าสุด:2019-7-14 
ออนไลน์:2749 
สถานะใช้งาน:ออฟไลน์
เหรียญเกียรติยศ
ประดับยศนักโพสต์ยอดเยี่ยม ประดับยศนักแบ่งปันยอดเยี่ยม ประดับยศนักกิจกรรมยอดเยี่ยม ประดับยศนักเชิญชวนยอดเยี่ยม ประดับยศนักเขียนบทความยอดเยี่ยม ประดับยศนักออกแบบยอดเยี่ยม ประดับยศกิตติมศักดิ์ ประดับยศผู้ให้การสนับสนุน ประดับยศผู้ตั้งโพสต์ ประดับยศผู้ทรงคุณวุฒิ ประดับยศผู้สมัครสมาชิกใหม่ ประดับยศผู้ออนไลน์ต่อเนื่อง ประดับยศนักออนไลน์ยอดเยี่ยม


โพสต์ 2019-6-26 21:16:30 | ดู: 890| ตอบกลับ: 0
[MiniHQ หนังเก่าหายาก] Hang Em High (1969) : กลั่นแค้นไอ้ชาติหิน [1080p][พากย์ไทย2.0+อังกฤษDTS][บรรยายไทย+อังกฤษ]

22236_front.jpg

https://www.imdb.com/title/tt0061747/   X-Men: Apocalypse(2016) on IMDb
คาวบอยหนุ่มนาม Jed Cooper (Clint Eastwood) ที่รอดจากการถูกแก็งค์ศาลเตี้ยจับแขวนคอ หลังจากถูกเข้าใจผิด ต่อมาชีวิตเขาได้พลิกผันกลายมาเป็นนายอำเภอ เพื่อกลับมาตามไล่ล่าคนผิด
  เจ๊ด คูเปอร์ (Clint Eastwood) นายอำเภอเก่า..ซึ่งได้ผลันชีวิตมาเป็นคนต้อนฝูงวัว ในเขตแดนโอกลาโฮมา(Oklahoma)ด้วยตวามรู้ไม่เท่าทันเจ๊ดได้ซื้อฝูงวัวต่อจากโจรขโมยวัวที่มาหลอกขายให้..และในขณะที่..เขากำลังต้อนฝูงวัวข้ามแม่น้ำเจ๊ดก็ถูกกองทหารตามมาจับตัว..ด้วยข้อกล่าวหาว่าขโมยฝูงวัวและฆ่าเจ้าทรัพย์ตาย ซึ่งกองทหารโฉดที่นำโดย อวิลสัน (Begley) และสมุนทั้ง9คนได้ตั้งศาลเตี้ย.แขวนคอเขาที่ริมแม่น้ำนั้น แต่โชคดีที่มีคนมาช่วย..เขารอดตาย แต่กระนั้น..เจ๊ดก็ต้องสูญเสียฝูงวัวทั้งหมดไป ซึ่งความอยุติธรรมครั้งนี้..ต้องได้รับการล้างแค้น
General
Unique ID                                : 248801855820231019094608381945961140123 (0xBB2D7E933F8CC4A7B5289C78345E4F9B)
Complete name                            : Hang.Em.High.1969.1080p.BrRip.DTS.x264_hdfile4you.clubhd4you.net.mkv
Format                                   : Matroska
Format version                           : Version 4 / Version 2
File size                                : 2.98 GiB
Duration                                 : 1h 54mn
Overall bit rate                         : 3 715 Kbps
Movie name                               : Hang.Em.High.1969.1080p.BrRip.DTS.x264_hdfile4you.clubhd4you.net
Encoded date                             : UTC 2018-12-21T14:50:28Z
Writing application                      : mkvmerge v5.9.0 ('On The Loose') built on Dec  9 2012 15:37:01
Writing library                          : Lavf57.7.2
DURATION                                 : 01:51:36.065000000
NUMBER_OF_FRAMES                         : 1810
NUMBER_OF_BYTES                          : 20613808
_STATISTICS_WRITING_APP                  : mkvmerge v29.0.0 ('Like It Or Not') 64-bit
_STATISTICS_WRITING_DATE_UTC             : 2018-12-21 19:18:03
_STATISTICS_TAGS                         : BPS DURATION NUMBER_OF_FRAMES NUMBER_OF_BYTES

Video
ID                                       : 1
Format                                   : AVC
Format/Info                              : Advanced Video Codec
Format profile                           : [email protected]
Format settings, CABAC                   : Yes
Format settings, ReFrames                : 4 frames
Muxing mode                              : Header stripping
Codec ID                                 : V_MPEG4/ISO/AVC
Duration                                 : 1h 54mn
Bit rate                                 : 1 940 Kbps
Width                                    : 1 920 pixels
Height                                   : 1 036 pixels
Display aspect ratio                     : 1.85:1
Frame rate mode                          : Constant
Frame rate                               : 23.976 fps
Color space                              : YUV
Chroma subsampling                       : 4:2:0
Bit depth                                : 8 bits
Scan type                                : Progressive
Bits/(Pixel*Frame)                       : 0.041
Stream size                              : 1.55 GiB (52%)
Title                                    : Hang.Em.High.1969.1080p.BrRip.DTS.x264_hdfile4you.clubhd4you.net
Writing library                          : x264 core 155 r2901 7d0ff22
Encoding settings                        : cabac=1 / ref=3 / deblock=1:0:0 / analyse=0x1:0x111 / me=hex / subme=7 / psy=1 / psy_rd=1.00:0.00 / mixed_ref=1 / me_range=16 / chroma_me=1 / trellis=1 / 8x8dct=0 / cqm=0 / deadzone=21,11 / fast_pskip=1 / chroma_qp_offset=-2 / threads=3 / lookahead_threads=1 / sliced_threads=0 / nr=0 / decimate=1 / interlaced=0 / bluray_compat=0 / constrained_intra=0 / bframes=3 / b_pyramid=2 / b_adapt=1 / b_bias=0 / direct=1 / weightb=1 / open_gop=0 / weightp=2 / keyint=240 / keyint_min=24 / scenecut=40 / intra_refresh=0 / rc_lookahead=40 / rc=crf / mbtree=1 / crf=28.0 / qcomp=0.60 / qpmin=0 / qpmax=69 / qpstep=4 / vbv_maxrate=20000 / vbv_bufsize=25000 / crf_max=0.0 / nal_hrd=none / filler=0 / ip_ratio=1.40 / aq=1:1.00
Language                                 : English
Default                                  : Yes
Forced                                   : No
Color primaries                          : BT.709
Transfer characteristics                 : BT.709
Matrix coefficients                      : BT.709
DURATION                                 : 01:54:39.456000000
NUMBER_OF_FRAMES                         : 164942
NUMBER_OF_BYTES                          : 1720479102
_STATISTICS_WRITING_APP                  : mkvmerge v29.0.0 ('Like It Or Not') 64-bit
_STATISTICS_WRITING_DATE_UTC             : 2018-12-21 19:18:03
_STATISTICS_TAGS                         : BPS DURATION NUMBER_OF_FRAMES NUMBER_OF_BYTES

Audio #1
ID                                       : 2
Format                                   : AC-3
Format/Info                              : Audio Coding 3
Mode extension                           : CM (complete main)
Format settings, Endianness              : Big
Muxing mode                              : Header stripping
Codec ID                                 : A_AC3
Duration                                 : 1h 54mn
Bit rate mode                            : Constant
Bit rate                                 : 192 Kbps
Channel(s)                               : 2 channels
Channel positions                        : Front: L R
Sampling rate                            : 48.0 KHz
Bit depth                                : 16 bits
Compression mode                         : Lossy
Stream size                              : 157 MiB (5%)
Title                                    : Thai 2.0 By_hdfile4you.clubhd4you.net
Language                                 : Thai
Default                                  : Yes
Forced                                   : Yes
DURATION                                 : 01:54:39.360000000
NUMBER_OF_FRAMES                         : 214980
NUMBER_OF_BYTES                          : 165104640
_STATISTICS_WRITING_APP                  : mkvmerge v29.0.0 ('Like It Or Not') 64-bit
_STATISTICS_WRITING_DATE_UTC             : 2018-12-21 19:18:03
_STATISTICS_TAGS                         : BPS DURATION NUMBER_OF_FRAMES NUMBER_OF_BYTES

Audio #2
ID                                       : 3
Format                                   : DTS
Format/Info                              : Digital Theater Systems
Mode                                     : 16
Format settings, Endianness              : Big
Muxing mode                              : Header stripping
Codec ID                                 : A_DTS
Duration                                 : 1h 54mn
Bit rate mode                            : Constant
Bit rate                                 : 1 509 Kbps
Channel(s)                               : 6 channels
Channel positions                        : Front: L C R, Side: L R, LFE
Sampling rate                            : 48.0 KHz
Bit depth                                : 24 bits
Compression mode                         : Lossy
Delay relative to video                  : -5ms
Stream size                              : 1.21 GiB (41%)
Title                                    : ENG DTS By_hdfile4you.clubhd4you.net
Language                                 : English
Default                                  : No
Forced                                   : No

Text #1
ID                                       : 4
Format                                   : UTF-8
Codec ID                                 : S_TEXT/UTF8
Codec ID/Info                            : UTF-8 Plain Text
Title                                    : ENG SRT By_hdfile4you.clubhd4you.net
Language                                 : English
Default                                  : No
Forced                                   : Yes

Text #2
ID                                       : 5
Format                                   : UTF-8
Codec ID                                 : S_TEXT/UTF8
Codec ID/Info                            : UTF-8 Plain Text
Title                                    : Thai SRT By_hdfile4you.clubhd4you.net
Language                                 : Thai
Default                                  : No
Forced                                   : No

Text #3
ID                                       : 6
Format                                   : PGS
Muxing mode                              : zlib
Codec ID                                 : S_HDMV/PGS
Codec ID/Info                            : The same subtitle format used on BDs/HD-DVDs
Title                                    : Thai  PGS By_hdfile4you.clubhd4you.net
Language                                 : Thai
Default                                  : Yes
Forced                                   : Yes

ดาวน์โหลด

ตรวจสอบสถานะ: ต้องซื้อหรือสิทธิไม่เพียงพอ

กลุ่มผู้ใช้ของคุณ: ผู้เยี่ยมชม

ชื่อไฟล์: Hang Em High 
ดาวน์โหลด: 1  ขนาดไฟล์: 2.97 GB 
สิทธิ์ในการดาวน์โหลด: VIP  ขึ้นไป หรือ สมาชิก VIP   [ซื้อวีไอพี]   [ซื้อกลุ่ม VIP]




ลิ๊งค์ไฟล์เสียโหลดไม่ได้ติดโดยตรงได้ที่ >>คลิก<<
http://hdfile4you.clubhd4you.net/
ขออภัย! คุณไม่ได้รับสิทธิ์ในการดำเนินการในส่วนนี้ กรุณาเลือกอย่างใดอย่างหนึ่ง ลงชื่อเข้าใช้ | ลงทะเบียน

รายละเอียดเครดิต

ปิด

ประกาศจากทางเว็ป Hdfile4youก่อนหน้า /3 ต่อไป

cornfile.com

ประวัติการแบน|อุปกรณ์พกพา|ข้อความล้วน|โหลดหนัง หนังใหม่ เก่า เพลง โหลดฟรี ดูฟรี Hdfile4you

GMT+7, 2019-7-17 06:06 , Processed in 0.045230 second(s), 27 queries .

Powered by Discuz! X3.4 R20180101, Rev.59

© 2001-2017 Comsenz Inc.

ตอบกระทู้ ขึ้นไปด้านบน ไปที่หน้ารายการกระทู้