โหลดหนัง Hdfile4you

 ลืมรหัสผ่าน
 ลงทะเบียน
ค้นหา
ดู: 914|ตอบกลับ: 0

[MiniHQ] Gangster Squad (2013) : แก๊งสเตอร์ สควอด แก๊งกุดหัวเจ้าพ่อ [1080p][พากย์ไทย5.1+อังกฤษDTS][บรรยายไทย+อังกฤษ]

[คัดลอกลิงก์]

 
 ตำเเหน่ง: ผู้ดูแลระบบ

 มีนามว่า:admin 
สมาชิกคนที่:
เพศ: ชาย
กระทู้:3656 
โพสต์:4680
พลังน้ำใจ:100675 
เงิน:100802 
ความดี:100675 
เครดิต:105355
สิทธิ์อ่าน:200 
สมัครเมื่อ:2015-8-12 
ชมล่าสุด:2019-7-14 
ออนไลน์:2749 
สถานะใช้งาน:ออฟไลน์
เหรียญเกียรติยศ
ประดับยศนักโพสต์ยอดเยี่ยม ประดับยศนักแบ่งปันยอดเยี่ยม ประดับยศนักกิจกรรมยอดเยี่ยม ประดับยศนักเชิญชวนยอดเยี่ยม ประดับยศนักเขียนบทความยอดเยี่ยม ประดับยศนักออกแบบยอดเยี่ยม ประดับยศกิตติมศักดิ์ ประดับยศผู้ให้การสนับสนุน ประดับยศผู้ตั้งโพสต์ ประดับยศผู้ทรงคุณวุฒิ ประดับยศผู้สมัครสมาชิกใหม่ ประดับยศผู้ออนไลน์ต่อเนื่อง ประดับยศนักออนไลน์ยอดเยี่ยม


โพสต์ 2019-6-26 21:28:47 | ดู: 914| ตอบกลับ: 0
[MiniHQ] Gangster Squad (2013) : แก๊งสเตอร์ สควอด แก๊งกุดหัวเจ้าพ่อ [1080p][พากย์ไทย5.1+อังกฤษDTS][บรรยายไทย+อังกฤษ]

651363_front.jpg

https://www.imdb.com/title/tt1321870/   X-Men: Apocalypse(2016) on IMDb
ที่ลอส แองเจลิส เมื่อปี 1949 มิคกี้ โคเฮ็น ราชาผู้ทรงอิทธิพลชาวบรูคลินผู้โหดเหี้ยม (ฌอน เพ็นน์) ดำเนินธุรกิจในเมืองแห่งนี้โดยการตักตวงผลประโยชน์โด ยมิชอบจากยา ปืน โสเภณี และหากเขามีช่องทางที่รวมถึงการรับพนันทางโทรศัพท์ที ่อยู่ทางตะวันกของชิคาโก ซึ่งเขาลงมือทุกอย่างโดยไม่ได้รับการคุ้มกันจากมือปื นรับจ้างส่วนตัวของเขาเท่านั้น แต่รวมถึงเจ้าหน้าที่ตำรวจ นักการเมือง และผู้ที่อยู่ภายใต้การควบคุมของเขาด้วย เท่านั้นก็เพียงพอที่จะขู่ขวัญตำรวจผู้โชกโชนและกล้า หาญได้แล้ว? เว้นแต่ทีมงานลับขนาดย่อมนอกวงการของ LAPD ที่นำโดย จ่า จอห์น โอ?มาร่า (จอช โบรลิน) และเจอร์รี่ วูเทอร์ส (ไรอัน กอสลิง) ผู้ร่วมมือกันเพื่อพยายามทำลายล้างโลกของโคเฮ็นให้สิ ้นซาก
General
Unique ID                                : 218669194956525259993628324400388328938 (0xA48227B13CD7FE91826D8ECF249F4DEA)
Complete name                            : Gangster.Squad.2013.1080p.BrRip.DTS.x264_hdfile4you.clubhd4you.net.mkv
Format                                   : Matroska
Format version                           : Version 4 / Version 2
File size                                : 2.90 GiB
Duration                                 : 1h 52mn
Overall bit rate                         : 3 675 Kbps
Movie name                               : Gangster.Squad.2013.1080p.BrRip.DTS.x264_hdfile4you.clubhd4you.net
Encoded date                             : UTC 2010-02-22 21:41:31
Writing application                      : mkvmerge v5.9.0 ('On The Loose') built on Dec  9 2012 15:37:01
Writing library                          : libebml v1.3.0 + libmatroska v1.4.0

Video
ID                                       : 1
Format                                   : AVC
Format/Info                              : Advanced Video Codec
Format profile                           : [email protected]
Format settings, CABAC                   : Yes
Format settings, ReFrames                : 4 frames
Muxing mode                              : Header stripping
Codec ID                                 : V_MPEG4/ISO/AVC
Duration                                 : 1h 52mn
Bit rate                                 : 2 500 Kbps
Width                                    : 1 920 pixels
Height                                   : 800 pixels
Display aspect ratio                     : 2.40:1
Frame rate mode                          : Constant
Frame rate                               : 23.976 fps
Color space                              : YUV
Chroma subsampling                       : 4:2:0
Bit depth                                : 8 bits
Scan type                                : Progressive
Bits/(Pixel*Frame)                       : 0.068
Stream size                              : 1.94 GiB (67%)
Title                                    : Gangster.Squad.2013.1080p.BrRip.DTS.x264_hdfile4you.clubhd4you.net
Writing library                          : x264 core 152 r2851M ba24899
Encoding settings                        : cabac=1 / ref=4 / deblock=1:-1:-1 / analyse=0x3:0x113 / me=umh / subme=9 / psy=1 / psy_rd=1.00:0.15 / mixed_ref=1 / me_range=24 / chroma_me=1 / trellis=2 / 8x8dct=1 / cqm=0 / deadzone=21,11 / fast_pskip=1 / chroma_qp_offset=-3 / threads=32 / lookahead_threads=4 / sliced_threads=0 / nr=0 / decimate=1 / interlaced=0 / bluray_compat=0 / constrained_intra=0 / bframes=3 / b_pyramid=2 / b_adapt=2 / b_bias=0 / direct=3 / weightb=1 / open_gop=0 / weightp=2 / keyint=250 / keyint_min=25 / scenecut=40 / intra_refresh=0 / rc_lookahead=50 / rc=2pass / mbtree=1 / bitrate=2500 / ratetol=1.0 / qcomp=0.60 / qpmin=0 / qpmax=69 / qpstep=4 / cplxblur=20.0 / qblur=0.5 / vbv_maxrate=31250 / vbv_bufsize=31250 / nal_hrd=none / filler=0 / ip_ratio=1.40 / aq=3:1.00
Language                                 : English
Default                                  : Yes
Forced                                   : No

Audio #1
ID                                       : 2
Format                                   : AC-3
Format/Info                              : Audio Coding 3
Mode extension                           : CM (complete main)
Format settings, Endianness              : Big
Muxing mode                              : Header stripping
Codec ID                                 : A_AC3
Duration                                 : 1h 52mn
Bit rate mode                            : Constant
Bit rate                                 : 384 Kbps
Channel(s)                               : 6 channels
Channel positions                        : Front: L C R, Side: L R, LFE
Sampling rate                            : 48.0 KHz
Bit depth                                : 16 bits
Compression mode                         : Lossy
Stream size                              : 310 MiB (10%)
Title                                    : Thai 5.1 Master By_hdfile4you.clubhd4you.net
Language                                 : Thai
Default                                  : Yes
Forced                                   : Yes

Audio #2
ID                                       : 3
Format                                   : DTS
Format/Info                              : Digital Theater Systems
Mode                                     : 16
Format settings, Endianness              : Big
Muxing mode                              : Header stripping
Codec ID                                 : A_DTS
Duration                                 : 1h 52mn
Bit rate mode                            : Constant
Bit rate                                 : 755 Kbps
Channel(s)                               : 6 channels
Channel positions                        : Front: L C R, Side: L R, LFE
Sampling rate                            : 48.0 KHz
Bit depth                                : 24 bits
Compression mode                         : Lossy
Stream size                              : 609 MiB (21%)
Title                                    : English DTS By_hdfile4you.clubhd4you.net
Language                                 : English
Default                                  : No
Forced                                   : No

Text #1
ID                                       : 4
Format                                   : VobSub
Muxing mode                              : zlib
Codec ID                                 : S_VOBSUB
Codec ID/Info                            : The same subtitle format used on DVDs
Title                                    : Thai 480p From DVD Master By_hdfile4you.clubhd4you.net
Language                                 : Thai
Default                                  : No
Forced                                   : No

Text #2
ID                                       : 5
Format                                   : VobSub
Muxing mode                              : zlib
Codec ID                                 : S_VOBSUB
Codec ID/Info                            : The same subtitle format used on DVDs
Title                                    : Thai 1080p By_hdfile4you.clubhd4you.net
Language                                 : Thai
Default                                  : No
Forced                                   : No

Text #3
ID                                       : 6
Format                                   : VobSub
Muxing mode                              : zlib
Codec ID                                 : S_VOBSUB
Codec ID/Info                            : The same subtitle format used on DVDs
Title                                    : Thai 1080p Out By_hdfile4you.clubhd4you.net
Language                                 : Thai
Default                                  : No
Forced                                   : No

Text #4
ID                                       : 7
Format                                   : VobSub
Muxing mode                              : zlib
Codec ID                                 : S_VOBSUB
Codec ID/Info                            : The same subtitle format used on DVDs
Title                                    : Thai 1080p Yellow By_hdfile4you.clubhd4you.net
Language                                 : Thai
Default                                  : No
Forced                                   : No

Text #5
ID                                       : 8
Format                                   : PGS
Muxing mode                              : zlib
Codec ID                                 : S_HDMV/PGS
Codec ID/Info                            : The same subtitle format used on BDs/HD-DVDs
Title                                    : Thai PGS By_hdfile4you.clubhd4you.net
Language                                 : Thai
Default                                  : Yes
Forced                                   : Yes

Text #6
ID                                       : 9
Format                                   : PGS
Muxing mode                              : zlib
Codec ID                                 : S_HDMV/PGS
Codec ID/Info                            : The same subtitle format used on BDs/HD-DVDs
Title                                    : Thai PGS Out By_hdfile4you.clubhd4you.net
Language                                 : Thai
Default                                  : No
Forced                                   : No

Text #7
ID                                       : 10
Format                                   : PGS
Muxing mode                              : zlib
Codec ID                                 : S_HDMV/PGS
Codec ID/Info                            : The same subtitle format used on BDs/HD-DVDs
Title                                    : Thai PGS Yellow By_hdfile4you.clubhd4you.net
Language                                 : Thai
Default                                  : No
Forced                                   : No

Text #8
ID                                       : 11
Format                                   : UTF-8
Codec ID                                 : S_TEXT/UTF8
Codec ID/Info                            : UTF-8 Plain Text
Title                                    : English By_hdfile4you.clubhd4you.net
Language                                 : English
Default                                  : No
Forced                                   : No

ดาวน์โหลด

ตรวจสอบสถานะ: ต้องซื้อหรือสิทธิไม่เพียงพอ

กลุ่มผู้ใช้ของคุณ: ผู้เยี่ยมชม

ชื่อไฟล์: Gangster Squad 
ดาวน์โหลด: 2  ขนาดไฟล์: 2.9 GB 
สิทธิ์ในการดาวน์โหลด: VIP  ขึ้นไป หรือ สมาชิก VIP   [ซื้อวีไอพี]   [ซื้อกลุ่ม VIP]




ลิ๊งค์ไฟล์เสียโหลดไม่ได้ติดโดยตรงได้ที่ >>คลิก<<
http://hdfile4you.clubhd4you.net/
ขออภัย! คุณไม่ได้รับสิทธิ์ในการดำเนินการในส่วนนี้ กรุณาเลือกอย่างใดอย่างหนึ่ง ลงชื่อเข้าใช้ | ลงทะเบียน

รายละเอียดเครดิต

ปิด

ประกาศจากทางเว็ป Hdfile4youก่อนหน้า /3 ต่อไป

cornfile.com

ประวัติการแบน|อุปกรณ์พกพา|ข้อความล้วน|โหลดหนัง หนังใหม่ เก่า เพลง โหลดฟรี ดูฟรี Hdfile4you

GMT+7, 2019-7-17 06:10 , Processed in 0.034555 second(s), 27 queries .

Powered by Discuz! X3.4 R20180101, Rev.59

© 2001-2017 Comsenz Inc.

ตอบกระทู้ ขึ้นไปด้านบน ไปที่หน้ารายการกระทู้