โหลดหนัง Hdfile4you

 ลืมรหัสผ่าน
 ลงทะเบียน
Loading...
ค้นหา
ดู: 1095|ตอบกลับ: 2

[MiniHQ] Minority Report (2002) : หน่วยสกัดอาชญากรรมล่าอนาคต [1080p][พากย์ไทย5.1+อังกฤษDTS][บรรยายไทย+อังกฤษ]

[คัดลอกลิงก์]

 
 ตำเเหน่ง: ผู้ดูแลระบบ

 มีนามว่า:hdfile4you 
สมาชิกคนที่:
เพศ ไม่ระบุ:
กระทู้:282 
โพสต์:291
พลังน้ำใจ:355 
เงิน:464 
ความดี:365 
เครดิต:646
สิทธิ์อ่าน:200 
สมัครเมื่อ:2015-8-16 
ชมล่าสุด:2019-7-15 
ออนไลน์:131 
สถานะใช้งาน:ออฟไลน์
เหรียญเกียรติยศ
ประดับยศนักโพสต์ยอดเยี่ยม ประดับยศนักออนไลน์ยอดเยี่ยม ประดับยศนักแบ่งปันยอดเยี่ยม ประดับยศนักกิจกรรมยอดเยี่ยม ประดับยศนักเชิญชวนยอดเยี่ยม ประดับยศนักเขียนบทความยอดเยี่ยม ประดับยศนักออกแบบยอดเยี่ยม ประดับยศกิตติมศักดิ์ ประดับยศผู้ให้การสนับสนุน ประดับยศผู้ทรงคุณวุฒิ ประดับยศผู้สมัครสมาชิกใหม่ ประดับยศผู้ตั้งโพสต์ ประดับยศผู้ออนไลน์ต่อเนื่อง ประดับยศผู้ร่วมบริจากช่วยเหลือเว็บ


โพสต์ 2019-6-28 19:42:05 | ดู: 1095| ตอบกลับ: 2
[MiniHQ] Minority Report (2002) : หน่วยสกัดอาชญากรรมล่าอนาคต [1080p][พากย์ไทย5.1+อังกฤษDTS][บรรยายไทย+อังกฤษ]

8685_front.jpg

https://www.imdb.com/title/tt0181689/  7.6/10470,602 votes
วอชิงตัน ดีซี ในปี 2054 คดีฆาตกรรมถูกกำจัดไปจนหมดสิ้น อนาคตเป็นสิ่งมองเห็นได้และผู้ต้องสงสัยถูกลงโทษก่อนการก่ออาชญากรรม ด้วยวิธีการเชื่อมต่ออย่างลึกล้ำของหน่วยงานป้องกันก่อนอาชญากรรมชั้นหัวกะทิ(Pre-Crime) แห่งกระทรวงยุติธรรม หลักฐานในอันที่จะกระทำ – ด้วยมโนภาพที่พาดพิงถึงเวลา สถานที่และรายละเอียดอื่นๆ – จากการจับตาของระบบ “พรี-ค็อกส์” สามสิ่งมีชีวิตผู้หยั่งรู้การกระทำความผิดทั้งปวงโดยไม่เคยผิดพลาด  หน่วยงานนี้เป็นระบบสมบูรณ์แบบซึ่งก้าวหน้าที่สุดในการปกป้องอาชญากรรมแห่งชาติและผู้ที่ทำงานหนักที่สุดคงหนีไม่พ้นหัวหน้าหน่วย จอห์น แอนเดอร์ตัน (ทอม ครูซ) นับเนื่องจากโศกนาฏกรรมในชีวิตของเขา แอนเดอร์ตันทุ่มเททั้งชีวิตให้กับการรักษาชีวิตผู้คนอีกนับพันจากสิ่งที่เขาเคยประสบมาหกปีที่ผ่านมารวมทั้งการลงคะแนนให้เป็นระบบระดับชาติยิ่งเน้นความเชื่อถือของเขาในการทำงานของหน่วยพรีไครม์แอนเดอร์ตันไม่เคยตั้งข้อสงสัยในระบบงานนี้แม้แต่น้อย…จนกระทั่งตัวเขาเองตกเป็นผู้ต้องสงสัยหมายเลข 1ในฐานะหัวหน้าหน่วย แอนเดอร์ตันจะเป็นคนแรกที่ได้เห็นภาพเคลื่อนเข้าสู่ห้องภาพต้องสงสัยในขณะที่ พรี-ค็อกส์ฝันถึงการฆาตกรรม ภาพนั้นไม่คุ้นตาแม้แต่น้อย ไม่ใช่คนที่เขารู้จัก แต่ในครั้งนี้ หลักฐานของฆาตกรชัดเจนยิ่ง จอห์น แอนเดอร์ตันกำลังจะฆ่าคนแปลกหน้าในระยะเวลาไม่ถึง 36 ชั่วโมง   เมื่อต้องถูกตามล่าจากหน่วยงานของตนเองโดยการนำของคู่ปรับ แดนนี่ วิทเวอร์ (คอลิน ฟาร์เรล) แอนเดอร์ตันต้องหลบหลีกให้พ้นรัศมีเรดาร์ของเมืองแห่งระบบอัตโนมัติที่การเคลื่อนไหวทุกย่างก้าวถูกจับตามอง รถยนต์ที่ขับอยู่อาจถูกบังคับโดยคนอื่น ไม่ว่าจะทำอะไรและจะไปไหน ไม่มีทางซ่อนตัวได้ จึงต้องหนีสถานเดียว   เมื่อไม่มีทางปกป้องตนเองจากข้อกล่าวหาของระบบจอห์นจึงต้องสืบหาต้นตอของเรื่อง และค้นพบความจริงที่อยู่ภายใต้คำถามซึ่งเขาพยายามขจัดจากความคิดมาตลอดเวลาหกปี: เป็นไปได้หรือไม่ที่ พรี-ค็อกส์ จะผิดพลาด?!!!
General
Unique ID                                : 247157646446451982669780764634564221113 (0xB9F0D4CB5424CB77A4E1F93B257758B9)
Complete name                            : Minority.Report.2002.1080p.BrRip.DTS.x264_hdfile4you.clubhd4you.net.mkv
Format                                   : Matroska
Format version                           : Version 4 / Version 2
File size                                : 3.15 GiB
Duration                                 : 2h 25mn
Overall bit rate                         : 3 101 Kbps
Movie name                               : Minority.Report.2002.1080p.BrRip.DTS.x264_hdfile4you.clubhd4you.net
Encoded date                             : UTC 2010-02-22 21:41:31
Writing application                      : mkvmerge v5.9.0 ('On The Loose') built on Dec  9 2012 15:37:01
Writing library                          : libebml v1.3.0 + libmatroska v1.4.0
Attachment                               : Yes / Yes / Yes

Video
ID                                       : 1
Format                                   : AVC
Format/Info                              : Advanced Video Codec
Format profile                           : [email protected]
Format settings, CABAC                   : Yes
Format settings, ReFrames                : 5 frames
Muxing mode                              : Header stripping
Codec ID                                 : V_MPEG4/ISO/AVC
Duration                                 : 2h 25mn
Bit rate                                 : 1 871 Kbps
Width                                    : 1 920 pixels
Height                                   : 808 pixels
Display aspect ratio                     : 2.40:1
Frame rate mode                          : Constant
Frame rate                               : 23.976 fps
Color space                              : YUV
Chroma subsampling                       : 4:2:0
Bit depth                                : 8 bits
Scan type                                : Progressive
Bits/(Pixel*Frame)                       : 0.050
Stream size                              : 1.86 GiB (59%)
Title                                    : Minority.Report.2002.1080p.BrRip.DTS.x264_hdfile4you.clubhd4you.net
Writing library                          : x264 core 120 r2164 da19765
Encoding settings                        : cabac=1 / ref=5 / deblock=1:0:0 / analyse=0x3:0x113 / me=umh / subme=8 / psy=1 / psy_rd=1.00:0.15 / mixed_ref=1 / me_range=18 / chroma_me=1 / trellis=1 / 8x8dct=1 / cqm=0 / deadzone=21,11 / fast_pskip=1 / chroma_qp_offset=-3 / threads=6 / sliced_threads=0 / nr=0 / decimate=1 / interlaced=0 / bluray_compat=0 / constrained_intra=0 / bframes=3 / b_pyramid=2 / b_adapt=2 / b_bias=0 / direct=3 / weightb=1 / open_gop=0 / weightp=2 / keyint=240 / keyint_min=23 / scenecut=40 / intra_refresh=0 / rc_lookahead=50 / rc=2pass / mbtree=1 / bitrate=1871 / ratetol=1.0 / qcomp=0.60 / qpmin=10 / qpmax=51 / qpstep=4 / cplxblur=20.0 / qblur=0.5 / ip_ratio=1.40 / aq=1:1.00
Language                                 : English
Default                                  : Yes
Forced                                   : No

Audio #1
ID                                       : 2
Format                                   : AC-3
Format/Info                              : Audio Coding 3
Mode extension                           : CM (complete main)
Format settings, Endianness              : Big
Muxing mode                              : Header stripping
Codec ID                                 : A_AC3
Duration                                 : 2h 25mn
Bit rate mode                            : Constant
Bit rate                                 : 448 Kbps
Channel(s)                               : 6 channels
Channel positions                        : Front: L C R, Side: L R, LFE
Sampling rate                            : 48.0 KHz
Bit depth                                : 16 bits
Compression mode                         : Lossy
Stream size                              : 465 MiB (14%)
Title                                    : Thai 5.1 Master By_hdfile4you.clubhd4you.net
Language                                 : Thai
Default                                  : Yes
Forced                                   : Yes

Audio #2
ID                                       : 3
Format                                   : DTS
Format/Info                              : Digital Theater Systems
Mode                                     : 16
Format settings, Endianness              : Big
Muxing mode                              : Header stripping
Codec ID                                 : A_DTS
Duration                                 : 2h 25mn
Bit rate mode                            : Constant
Bit rate                                 : 755 Kbps
Channel(s)                               : 6 channels
Channel positions                        : Front: L C R, Side: L R, LFE
Sampling rate                            : 48.0 KHz
Bit depth                                : 24 bits
Compression mode                         : Lossy
Stream size                              : 784 MiB (24%)
Title                                    : English DTS By_hdfile4you.clubhd4you.net
Language                                 : English
Default                                  : No
Forced                                   : No

Text #1
ID                                       : 4
Format                                   : VobSub
Muxing mode                              : zlib
Codec ID                                 : S_VOBSUB
Codec ID/Info                            : The same subtitle format used on DVDs
Title                                    : Thai 480p From BluRay Master By_hdfile4you.clubhd4you.net
Language                                 : Thai
Default                                  : No
Forced                                   : No

Text #2
ID                                       : 5
Format                                   : VobSub
Muxing mode                              : zlib
Codec ID                                 : S_VOBSUB
Codec ID/Info                            : The same subtitle format used on DVDs
Title                                    : Thai 1080p BluRay Master By_hdfile4you.clubhd4you.net
Language                                 : Thai
Default                                  : Yes
Forced                                   : Yes

Text #3
ID                                       : 6
Format                                   : VobSub
Muxing mode                              : zlib
Codec ID                                 : S_VOBSUB
Codec ID/Info                            : The same subtitle format used on DVDs
Title                                    : Thai 1080p BluRay Master [BIG] By_hdfile4you.clubhd4you.net
Language                                 : Thai
Default                                  : No
Forced                                   : No

Text #4
ID                                       : 7
Format                                   : VobSub
Muxing mode                              : zlib
Codec ID                                 : S_VOBSUB
Codec ID/Info                            : The same subtitle format used on DVDs
Title                                    : Thai 1080p BluRay Master [Out] By_hdfile4you.clubhd4you.net
Language                                 : Thai
Default                                  : No
Forced                                   : No

Text #5
ID                                       : 8
Format                                   : PGS
Muxing mode                              : zlib
Codec ID                                 : S_HDMV/PGS
Codec ID/Info                            : The same subtitle format used on BDs/HD-DVDs
Title                                    : Thai PGS BluRay Master By_hdfile4you.clubhd4you.net
Language                                 : Thai
Default                                  : No
Forced                                   : No

Text #6
ID                                       : 9
Format                                   : ASS
Codec ID                                 : S_TEXT/ASS
Codec ID/Info                            : Advanced Sub Station Alpha
Compression mode                         : Lossless
Title                                    : English By_hdfile4you.clubhd4you.net
Language                                 : English
Default                                  : No
Forced                                   : No
1 GB / PART
Download (ไม่อัพโหลด Google Drive แทน)

ลิ๊งเดียวจบ
*** ถ้าโหลดไม่ได้แสดงว่าติด Limit ต้องรอพรุ่งนี้เพราะคนโหลดเยอะนะครับ ***
ลิ๊งเดียวจบ
PASS : http://hdfile4you.clubhd4you.net/
*** ถ้าโหลดไม่ได้แสดงว่าติด Limit ต้องรอพรุ่งนี้เพราะคนโหลดเยอะนะครับ ***
SuperHQ 1080p
Download
MiniHQ 1080p


ตั้งชื่อไฟล์ตามแบบนี้เท่านั้น
1.Minority Report.part1.rar
2.Minority Report.part2.rar
3.Minority Report.part3.rar
4.Minority Report.part4.rar

ปล.  -- Winrar ใส่ Recovery Record 5% ทุกไฟล์ครับ --


 
 ตำเเหน่ง: Master

 มีนามว่า:Pajok 
สมาชิกคนที่:210 
เพศ ไม่ระบุ:
กระทู้:
โพสต์:160
พลังน้ำใจ:358 
เงิน:876 
ความดี:358 
เครดิต:518
สิทธิ์อ่าน:50 
สมัครเมื่อ:2015-9-28 
ชมล่าสุด:2019-7-15 
ออนไลน์:129 
สถานะใช้งาน:ออฟไลน์
เหรียญเกียรติยศ
ประดับยศผู้สมัครสมาชิกใหม่


โพสต์ 2019-7-1 16:37:49
Thank you

 
 ตำเเหน่ง: Beginner

 มีนามว่า:BIGBIRD 
สมาชิกคนที่:3272 
เพศ ไม่ระบุ:
กระทู้:
โพสต์:16
พลังน้ำใจ:11 
เงิน:28 
ความดี:11 
เครดิต:27
สิทธิ์อ่าน:10 
สมัครเมื่อ:2019-7-14 
ชมล่าสุด:2019-7-14 
ออนไลน์:
สถานะใช้งาน:ออฟไลน์
คุณยังไม่ได้ใช้เหรียญ
กรุณาคลิกที่นี่เพื่อใช้เหรียญ


โพสต์ 3 วันที่แล้ว
,,,,,thank,,,,,,,,
ขออภัย! คุณไม่ได้รับสิทธิ์ในการดำเนินการในส่วนนี้ กรุณาเลือกอย่างใดอย่างหนึ่ง ลงชื่อเข้าใช้ | ลงทะเบียน

รายละเอียดเครดิต

ปิด

ประกาศจากทางเว็ป Hdfile4youก่อนหน้า /3 ต่อไป

cornfile.com

ประวัติการแบน|อุปกรณ์พกพา|ข้อความล้วน|โหลดหนัง หนังใหม่ เก่า เพลง โหลดฟรี ดูฟรี Hdfile4you

GMT+7, 2019-7-17 06:15 , Processed in 0.060926 second(s), 31 queries .

Powered by Discuz! X3.4 R20180101, Rev.59

© 2001-2017 Comsenz Inc.

ตอบกระทู้ ขึ้นไปด้านบน ไปที่หน้ารายการกระทู้