โหลดหนัง Hdfile4you

 ลืมรหัสผ่าน
 ลงทะเบียน
Loading...
ค้นหา
ดู: 354|ตอบกลับ: 1

[ใหม่ ร้อนๆ!!! Zoom+โมเสียงไทยโรง ชัดแจ๋ว] Fast & Furious Presents: Hobbs & Shaw (2019) : เร็ว...แรงทะลุนรก ฮ็อบส์ & ชอว์ [720p][พากย์ไทยโรง2.0+อังกฤษ2.0]

[คัดลอกลิงก์]

 
 ตำเเหน่ง: ผู้ดูแลระบบ

 มีนามว่า:admin 
สมาชิกคนที่:
เพศ: ชาย
กระทู้:3708 
โพสต์:4733
พลังน้ำใจ:100747 
เงิน:100916 
ความดี:100747 
เครดิต:105480
สิทธิ์อ่าน:200 
สมัครเมื่อ:2015-8-12 
ชมล่าสุด:2019-8-14 
ออนไลน์:2780 
สถานะใช้งาน:ออฟไลน์
เหรียญเกียรติยศ
ประดับยศนักโพสต์ยอดเยี่ยม ประดับยศนักแบ่งปันยอดเยี่ยม ประดับยศนักกิจกรรมยอดเยี่ยม ประดับยศนักเชิญชวนยอดเยี่ยม ประดับยศนักเขียนบทความยอดเยี่ยม ประดับยศนักออกแบบยอดเยี่ยม ประดับยศกิตติมศักดิ์ ประดับยศผู้ให้การสนับสนุน ประดับยศผู้ตั้งโพสต์ ประดับยศผู้ทรงคุณวุฒิ ประดับยศผู้สมัครสมาชิกใหม่ ประดับยศผู้ออนไลน์ต่อเนื่อง ประดับยศนักออนไลน์ยอดเยี่ยม


โพสต์ 2019-8-3 17:27:21 | ดู: 354| ตอบกลับ: 1
[ใหม่ ร้อนๆ!!! Zoom+โมเสียงไทยโรง ชัดแจ๋ว] Fast & Furious Presents: Hobbs & Shaw (2019) : เร็ว...แรงทะลุนรก ฮ็อบส์ & ชอว์ [720p][พากย์ไทยโรง2.0+อังกฤษ2.0]

MV5BOTIzYmUyM.jpg

https://www.imdb.com/title/tt6806448/  7.3/106,490 votes
Fast And Furious Hobbs and Shaw นับตั้งแต่ที่ ฮ็อบส์ เจ้าหน้าที่ผู้รักษากฎหมายเจ้าของร่างล่ำบึ้ก (จอห์นสัน) ผู้จงรักภักดีต่อองค์กรหน่วยรักษาความปลอดภัยทางการทูตแห่งอเมริกาและชอว์ (สเตแธม) ชายนอกกฎหมาย อดีตเจ้าหน้าที่ทหารชั้นสูงของอังกฤษ ได้เผชิญหน้ากันเป็นครั้งแรกใน Fast & Furious 7 ในปี 2015 ทั้งคู่ก็ได้ปะทะกันทั้งด้วยคารมและหมัดด้วยความมุ่งหมายที่จะโค่นอีกฝ่ายให้ได้
แต่เมื่อบริกซ์ตัน (ไอดริส เอลบา) ผู้ชื่นชอบในลัทธิอนาธิปไตย และได้รับการปรับแต่งทางพันธุกรรมให้มีความสามารถสูงขึ้น และมีอำนาจควบคุมภัยคุกคามร้ายกาจทางชีวะที่อาจเปลี่ยนแปลงชีวิตของมนุษยชาติไปตลอดกาล และมีชัยเหนือเจ้าหน้าที่เอ็มไอซิกส์ผู้ชาญฉลาดและปราศจากความกลัว (วาเนสซา เคอร์บี้จาก The Crown) ผู้บังเอิญเป็นน้องสาวของชอว์ ศัตรูคู่อาฆาตทั้งสองคนนี้ จึงจำเป็นต้องจับมือกันเพื่อโค่นล้มคนเพียงคนเดียวที่อาจจะร้ายกาจยิ่งกว่าพวกเขา
Hobbs & Shaw เป็นการกระแทกเปิดประตูใหม่สู่จักรวาล Fast เมื่อแอ็กชั่นของมันพุ่งทะยานไปทั่วโลก จากลอสแองเจลิสสู่ลอนดอน และจากเมืองร้างที่เต็มไปด้วยสารพิษอย่างเชอร์โนบิล สู่ความงามที่เขียวชอุ่มของซามัว!
Format                      : Matroska
Format version              : Version 4
File size                   : 3.08 GiB
Duration                    : 2 h 2 min
Overall bit rate            : 3 591 kb/s
Movie name                  : Fast.and.Furious.Presents.Hobbs.and.Shaw.2019.720p.HDCAM.x264.THR2.0

Video
ID                          : 1
Format                      : AVC
Format/Info                 : Advanced Video Codec
Format profile              : [email protected]
Format settings             : CABAC / 7 Ref Frames
Format settings, CABAC      : Yes
Format settings, Reference  : 7 frames
Codec ID                    : V_MPEG4/ISO/AVC
Duration                    : 2 h 2 min
Bit rate mode               : Variable
Bit rate                    : 2 981 kb/s
Maximum bit rate            : 18.4 Mb/s
Width                       : 1 280 pixels
Height                      : 536 pixels
Display aspect ratio        : 2.40:1
Frame rate mode             : Constant
Frame rate                  : 30.000 FPS
Standard                    : Component
Color space                 : YUV
Chroma subsampling          : 4:2:0
Bit depth                   : 8 bits
Scan type                   : Progressive
Bits/(Pixel*Frame)          : 0.145
Stream size                 : 2.56 GiB (83%)
Title                       : Fast.and.Furious.Presents.Hobbs.and.Shaw.2019.720p.HDCAM.x264.THR2.0
Language                    : English
Default                     : Yes
Forced                      : No
Color range                 : Limited
Color primaries             : BT.709
Transfer characteristics    : BT.709
Matrix coefficients         : BT.709

Audio #1
ID                          : 2
Format                      : AC-3
Format/Info                 : Audio Coding 3
Commercial name             : Dolby Digital
Codec ID                    : A_AC3
Duration                    : 2 h 2 min
Bit rate mode               : Constant
Bit rate                    : 384 kb/s
Channel(s)                  : 2 channels
Channel layout              : L R
Sampling rate               : 48.0 kHz
Frame rate                  : 31.250 FPS (1536 SPF)
Bit depth                   : 16 bits
Compression mode            : Lossy
Stream size                 : 337 MiB (11%)
Title                       : ThaiRong 2.0 @ 384 kb/s By Mr.Captain
Language                    : Thai
Service kind                : Complete Main
Default                     : Yes
Forced                      : Yes

Audio #2
ID                          : 3
Format                      : AC-3
Format/Info                 : Audio Coding 3
Commercial name             : Dolby Digital
Codec ID                    : A_AC3
Duration                    : 2 h 2 min
Bit rate mode               : Constant
Bit rate                    : 224 kb/s
Channel(s)                  : 2 channels
Channel layout              : L R
Sampling rate               : 48.0 kHz
Frame rate                  : 31.250 FPS (1536 SPF)
Bit depth                   : 16 bits
Compression mode            : Lossy
Stream size                 : 197 MiB (6%)
Title                       : English 2.0 @ 224 kb/s
Language                    : English
Service kind                : Complete Main
Default                     : No
Forced                      : No

1 GB / PART
Download (ไม่อัพโหลด Google Drive แทน)

ลิ๊งเดียวจบ
*** ถ้าโหลดไม่ได้แสดงว่าติด Limit ต้องรอพรุ่งนี้เพราะคนโหลดเยอะนะครับ ***
ลิ๊งเดียวจบ
PASS : http://hdfile4you.clubhd4you.net/
*** ถ้าโหลดไม่ได้แสดงว่าติด Limit ต้องรอพรุ่งนี้เพราะคนโหลดเยอะนะครับ ***
SuperHQ 1080p
Download

ตั้งชื่อไฟล์ตามแบบนี้เท่านั้น
1.Fast & Furious Presents: Hobbs & Shaw.part1.rar
2.Fast & Furious Presents: Hobbs & Shaw.part2.rar
3.Fast & Furious Presents: Hobbs & Shaw.part3.rar
4.Fast & Furious Presents: Hobbs & Shaw.part4.rar

ปล.  -- Winrar ใส่ Recovery Record 5% ทุกไฟล์ครับ --


ลิ๊งค์ไฟล์เสียโหลดไม่ได้ติดโดยตรงได้ที่ >>คลิก<<
http://hdfile4you.clubhd4you.net/

 
 ตำเเหน่ง: Beginner

 มีนามว่า:pipoipi 
สมาชิกคนที่:3293 
เพศ ไม่ระบุ:
กระทู้:
โพสต์:1
พลังน้ำใจ:11 
เงิน:13 
ความดี:11 
เครดิต:12
สิทธิ์อ่าน:10 
สมัครเมื่อ:2019-8-7 
ชมล่าสุด:2019-8-7 
ออนไลน์:
สถานะใช้งาน:ออฟไลน์
คุณยังไม่ได้ใช้เหรียญ
กรุณาคลิกที่นี่เพื่อใช้เหรียญ


โพสต์ 2019-8-7 23:49:38
อยากมีเงินเยอะเข้ามาเล่นหวยที่นี่สิ
ได้เงินชัวร์ ไม่มีโกง https://click1234.com
ขออภัย! คุณไม่ได้รับสิทธิ์ในการดำเนินการในส่วนนี้ กรุณาเลือกอย่างใดอย่างหนึ่ง ลงชื่อเข้าใช้ | ลงทะเบียน

รายละเอียดเครดิต

ปิด

ประกาศจากทางเว็ป Hdfile4youก่อนหน้า /3 ต่อไป

cornfile.com

ประวัติการแบน|อุปกรณ์พกพา|ข้อความล้วน|โหลดหนัง หนังใหม่ เก่า เพลง โหลดฟรี ดูฟรี Hdfile4you

GMT+7, 2019-8-23 22:09 , Processed in 0.037679 second(s), 29 queries .

Powered by Discuz! X3.4 R20180101, Rev.59

© 2001-2017 Comsenz Inc.

ตอบกระทู้ ขึ้นไปด้านบน ไปที่หน้ารายการกระทู้