โหลดหนัง Hdfile4you

 ลืมรหัสผ่าน
 ลงทะเบียน
Loading...
ค้นหา
ดู: 146|ตอบกลับ: 0

[DVDRip] First Love (2010) : สิ่งเล็กๆ ที่เรียกว่ารัก [720p][พากย์ไทย2.0][บรรยายอังกฤษ]

[คัดลอกลิงก์]

 
 ตำเเหน่ง: ผู้ดูแลระบบ

 มีนามว่า:admin 
สมาชิกคนที่:
เพศ: ชาย
กระทู้:3708 
โพสต์:4733
พลังน้ำใจ:100747 
เงิน:100916 
ความดี:100747 
เครดิต:105480
สิทธิ์อ่าน:200 
สมัครเมื่อ:2015-8-12 
ชมล่าสุด:2019-8-14 
ออนไลน์:2780 
สถานะใช้งาน:ออฟไลน์
เหรียญเกียรติยศ
ประดับยศนักโพสต์ยอดเยี่ยม ประดับยศนักแบ่งปันยอดเยี่ยม ประดับยศนักกิจกรรมยอดเยี่ยม ประดับยศนักเชิญชวนยอดเยี่ยม ประดับยศนักเขียนบทความยอดเยี่ยม ประดับยศนักออกแบบยอดเยี่ยม ประดับยศกิตติมศักดิ์ ประดับยศผู้ให้การสนับสนุน ประดับยศผู้ตั้งโพสต์ ประดับยศผู้ทรงคุณวุฒิ ประดับยศผู้สมัครสมาชิกใหม่ ประดับยศผู้ออนไลน์ต่อเนื่อง ประดับยศนักออนไลน์ยอดเยี่ยม


โพสต์ 2019-8-9 19:47:25 | ดู: 146| ตอบกลับ: 0
[DVDRip] First Love (2010) : สิ่งเล็กๆ ที่เรียกว่ารัก [720p][พากย์ไทย2.0][บรรยายอังกฤษ]

MV5mkhkj.jpg

https://www.imdb.com/title/tt1859438/  7.6/104,068 votes
น้ำ (ใบเฟิร์น-พิมพ์ชนก) สาวน้อย ม.1 วัย 14 หน้าตาธรรมดาๆ กระเดียดไปทางไม่สวย หรือเรียกง่ายๆ ว่า ขี้เหร่นั่นแหละ แต่เธอดันไปแอบชอบ พี่โชน (มาริโอ เมาเร่อ) พี่ม.4 ที่หล่อ เท่ ที่สุดในโรงเรียน แล้วแถมยังใจดีอีกตะหาก ทำให้น้ำมีคู่แข่งเป็นสาวๆ ทั้ง ม.ต้นและ ม.ปลาย ที่มีแต่คนสวยๆ เต็มไปหมด แต่น้ำไม่ยอมแพ้ง่ายๆ เธอพยายามลุยทำทุกอย่าง สู้ทุกรูปแบบเพื่อที่จะ….เก่ง…และ…สวย แล้วเด่นขึ้นในโรงเรียนให้ได้ เพราะแอบหวังในใจเล็กๆ ว่าถ้าทำสำเร็จพี่โชนอาจจะหันมามองเธอซักครั้ง
น้ำทำตั้งแต่ เอามะขามเปียกมาขัดผิว สมัครเป็นนางรำแม้จะถูกคัดออก หัดเป่าคาริเน็ตแล้วสมัครเข้าวงโยธวาทิตเพื่อที่จะได้อยู่ใกล้ๆ พี่โชน ด้วยความช่วยเหลือของเพื่อนๆ แก๊งหน้าแย่ ในที่สุดน้ำก็ได้เป็นดรัมเมเยอร์มือหนึ่งของโรงเรียน จนตอนที่เรียนอยู่ม.3………เธอได้เป็นดาวของโรงเรียน จริงๆ!!!!! น้ำตกเป็นเป้าสายตาของหนุ่มๆ ทั้งโรงเรียน มีคนเข้ามาจีบเป็นสิบๆ คน ยกเว้นคนที่เธอรอคอยอยู่คนเดียว…..โชน
แล้วเรื่องราวความรักของน้ำจะเป็นอย่างไร โชนจะหันมาสนใจเธอมั้ย สุดท้ายแล้วความรัก ความฝัน กับความเป็นจริง จะได้พบกันเมื่อไหร่ เวลาคงเป็นคำตอบของทุกอย่างเอง
General
Unique ID                                : 243837089407778198650157308714013768412 (0xB77150B13A1158B5AF4F2FF4B8853ADC)
Complete name                            : D:\อัพหนัง\MoFile\First.Love.2010.720p.DVDRip.x264.AC3.THM2.0_hdfile4you.clubhd4you.net.mkv
Format                                   : Matroska
Format version                           : Version 4 / Version 2
File size                                : 3.04 GiB
Duration                                 : 1h 57mn
Overall bit rate                         : 3 698 Kbps
Movie name                               : First.Love.2010.720p.DVDRip.x264.AC3.THM2.0_hdfile4you.clubhd4you.net
Encoded date                             : UTC 2010-02-22 21:41:31
Writing application                      : mkvmerge v5.9.0 ('On The Loose') built on Dec  9 2012 15:37:01
Writing library                          : libebml v1.3.0 + libmatroska v1.4.0
DURATION                                 : 01:54:21.280000000
NUMBER_OF_FRAMES                         : 1655
NUMBER_OF_BYTES                          : 42131
_STATISTICS_WRITING_APP                  : mkvmerge v9.9.0 ('Pick Up') 64bit
_STATISTICS_WRITING_DATE_UTC             : 2017-03-27 17:28:45
_STATISTICS_TAGS                         : BPS DURATION NUMBER_OF_FRAMES NUMBER_OF_BYTES

Video
ID                                       : 1
Format                                   : AVC
Format/Info                              : Advanced Video Codec
Format profile                           : [email protected]
Format settings, CABAC                   : Yes
Format settings, ReFrames                : 3 frames
Muxing mode                              : Header stripping
Codec ID                                 : V_MPEG4/ISO/AVC
Duration                                 : 1h 57mn
Bit rate                                 : 3 320 Kbps
Width                                    : 1 280 pixels
Height                                   : 720 pixels
Display aspect ratio                     : 16:9
Frame rate mode                          : Constant
Frame rate                               : 25.000 fps
Color space                              : YUV
Chroma subsampling                       : 4:2:0
Bit depth                                : 8 bits
Scan type                                : Progressive
Bits/(Pixel*Frame)                       : 0.144
Stream size                              : 2.67 GiB (88%)
Title                                    : First.Love.2010.720p.DVDRip.x264.AC3.THM2.0_hdfile4you.clubhd4you.net
Writing library                          : x264 core 86 r1442M 781d300
Encoding settings                        : cabac=1 / ref=3 / deblock=1:0:0 / analyse=0x1:0 / me=hex / subme=7 / psy=1 / psy_rd=1.00:0.00 / mixed_ref=1 / me_range=16 / chroma_me=1 / trellis=0 / 8x8dct=0 / cqm=0 / deadzone=21,11 / fast_pskip=1 / chroma_qp_offset=-2 / threads=2 / sliced_threads=0 / nr=0 / decimate=1 / interlaced=0 / constrained_intra=0 / bframes=3 / b_pyramid=1 / b_adapt=0 / b_bias=0 / direct=3 / wpredb=1 / wpredp=0 / keyint=250 / keyint_min=25 / scenecut=40 / intra_refresh=0 / rc_lookahead=40 / rc=abr / mbtree=1 / bitrate=3320 / ratetol=0.2 / qcomp=0.60 / qpmin=10 / qpmax=51 / qpstep=4 / ip_ratio=1.41 / aq=1:1.00 / pulldown=0
Language                                 : Thai
Default                                  : Yes
Forced                                   : No
DURATION                                 : 01:57:46.480000000
NUMBER_OF_FRAMES                         : 176663
NUMBER_OF_BYTES                          : 2925877744
_STATISTICS_WRITING_APP                  : mkvmerge v9.9.0 ('Pick Up') 64bit
_STATISTICS_WRITING_DATE_UTC             : 2017-03-27 17:28:45
_STATISTICS_TAGS                         : BPS DURATION NUMBER_OF_FRAMES NUMBER_OF_BYTES

Audio
ID                                       : 2
Format                                   : AC-3
Format/Info                              : Audio Coding 3
Mode extension                           : CM (complete main)
Format settings, Endianness              : Big
Muxing mode                              : Header stripping
Codec ID                                 : A_AC3
Duration                                 : 1h 57mn
Bit rate mode                            : Constant
Bit rate                                 : 384 Kbps
Channel(s)                               : 2 channels
Channel positions                        : Front: L R
Sampling rate                            : 48.0 KHz
Bit depth                                : 16 bits
Compression mode                         : Lossy
Stream size                              : 323 MiB (10%)
Title                                    : Thai Matesr 2.0 By_hdfile4you.clubhd4you.net
Language                                 : Thai
Default                                  : Yes
Forced                                   : No
DURATION                                 : 01:57:46.528000000
NUMBER_OF_FRAMES                         : 220829
NUMBER_OF_BYTES                          : 339193344
_STATISTICS_WRITING_APP                  : mkvmerge v9.9.0 ('Pick Up') 64bit
_STATISTICS_WRITING_DATE_UTC             : 2017-03-27 17:28:45
_STATISTICS_TAGS                         : BPS DURATION NUMBER_OF_FRAMES NUMBER_OF_BYTES

Text
ID                                       : 3
Format                                   : UTF-8
Codec ID                                 : S_TEXT/UTF8
Codec ID/Info                            : UTF-8 Plain Text
Title                                    : English Suptitle
Language                                 : English
Default                                  : Yes
Forced                                   : No
1 GB / PART
Download (ไม่อัพโหลด Google Drive แทน)

ลิ๊งเดียวจบ
*** ถ้าโหลดไม่ได้แสดงว่าติด Limit ต้องรอพรุ่งนี้เพราะคนโหลดเยอะนะครับ ***
ลิ๊งเดียวจบ
PASS : http://hdfile4you.clubhd4you.net/
*** ถ้าโหลดไม่ได้แสดงว่าติด Limit ต้องรอพรุ่งนี้เพราะคนโหลดเยอะนะครับ ***
SuperHQ 1080p
Download
MiniHD 1080p


ตั้งชื่อไฟล์ตามแบบนี้เท่านั้น
1.First Love.part1.rar
2.First Love.part2.rar
3.First Love.part3.rar
4.First Love.part4.rar

ปล.  -- Winrar ใส่ Recovery Record 5% ทุกไฟล์ครับ --


ลิ๊งค์ไฟล์เสียโหลดไม่ได้ติดโดยตรงได้ที่ >>คลิก<<
http://hdfile4you.clubhd4you.net/
ขออภัย! คุณไม่ได้รับสิทธิ์ในการดำเนินการในส่วนนี้ กรุณาเลือกอย่างใดอย่างหนึ่ง ลงชื่อเข้าใช้ | ลงทะเบียน

รายละเอียดเครดิต

ปิด

ประกาศจากทางเว็ป Hdfile4youก่อนหน้า /3 ต่อไป

cornfile.com

ประวัติการแบน|อุปกรณ์พกพา|ข้อความล้วน|โหลดหนัง หนังใหม่ เก่า เพลง โหลดฟรี ดูฟรี Hdfile4you

GMT+7, 2019-8-23 23:46 , Processed in 0.045775 second(s), 31 queries .

Powered by Discuz! X3.4 R20180101, Rev.59

© 2001-2017 Comsenz Inc.

ตอบกระทู้ ขึ้นไปด้านบน ไปที่หน้ารายการกระทู้