โหลดหนัง Hdfile4you

 ลืมรหัสผ่าน
 ลงทะเบียน
Loading...
ค้นหา
ดู: 74|ตอบกลับ: 0

[SuperHQ] Night of the Living Dead (1990) : ซากดิบไม่ต้องคุมกำเนิด [1080p][พากย์ไทย2.0+อังกฤษDTS][บรรยายไทย+อังกฤษ]

[คัดลอกลิงก์]

 
 ตำเเหน่ง: ผู้ดูแลระบบ

 มีนามว่า:admin 
สมาชิกคนที่:
เพศ: ชาย
กระทู้:3708 
โพสต์:4733
พลังน้ำใจ:100747 
เงิน:100916 
ความดี:100747 
เครดิต:105480
สิทธิ์อ่าน:200 
สมัครเมื่อ:2015-8-12 
ชมล่าสุด:2019-8-14 
ออนไลน์:2780 
สถานะใช้งาน:ออฟไลน์
เหรียญเกียรติยศ
ประดับยศนักโพสต์ยอดเยี่ยม ประดับยศนักแบ่งปันยอดเยี่ยม ประดับยศนักกิจกรรมยอดเยี่ยม ประดับยศนักเชิญชวนยอดเยี่ยม ประดับยศนักเขียนบทความยอดเยี่ยม ประดับยศนักออกแบบยอดเยี่ยม ประดับยศกิตติมศักดิ์ ประดับยศผู้ให้การสนับสนุน ประดับยศผู้ตั้งโพสต์ ประดับยศผู้ทรงคุณวุฒิ ประดับยศผู้สมัครสมาชิกใหม่ ประดับยศผู้ออนไลน์ต่อเนื่อง ประดับยศนักออนไลน์ยอดเยี่ยม


โพสต์ 2019-8-10 08:10:36 | ดู: 74| ตอบกลับ: 0
[SuperHQ] Night of the Living Dead (1990) : ซากดิบไม่ต้องคุมกำเนิด [1080p][พากย์ไทย2.0+อังกฤษDTS][บรรยายไทย+อังกฤษ]

215877_front.jpg

https://www.imdb.com/title/tt0100258/   X-Men: Apocalypse(2016) on IMDb
เรื่องได้เปิดที่ 2 พี่น้อง คือจอห์นนี่ (Bill Moseley) กับบาบาร่า (Patricia Tallman) ที่ทะเลาะกันตลอดทางระหว่างนั่งรถเพื่อไปเยี่ยมสุสานแม่ ก่อนจะเซอร์ไพร์สไปเจอซอมบี้ไล่งับจนเหลือบาบาร่าเพียงคนเดียวที่รอดมาได้ ซึ่งเธอได้วิ่งไปเจอกับบ้านหลังหนึ่ง ซึ่งเธอได้พักอยู่ที่นั้นสักระยะก่อนจะมีแขกมาเยือนเพิ่มอีกคนคือเบน (Tony Todd) แต่เหมือนเรื่องราวยังไม่หมดที่แค่หญิงหนึ่งชายหญิง เพราะเวลาต่อมาได้เจอผู้รอดชีวิตเพิ่มเข้ามาอีกหลายคน ทว่าเรื่องราวดูแทนที่จะดีขึ้นกลับตรงข้ามเพราะความวุ่นวายของเจ้าซอมบี้ที่พยายามบุกทลายเข้าบ้านให้ได้ แต่นั้นไม่ใช่ประเด็นใหญ่หลวงเกินตัวเมื่อคนที่รอดชีวิตดันมาทะเลาะกันเองจนสร้างความวุ่นวายกันตลอด สุดท้ายอะไรๆที่น่าจะดีขึ้นจากคนที่มากขึ้นเพื่อช่วยกันกลายเป็นชุลมุนสร้างปัญหา แล้วแบบนี้หายนะที่รออยู่นอกบ้านที่กำลังใกล้เข้ามาจะยับยั้งไม่ให้ถูกกินได้ยังไงกัน
General
Unique ID                                : 233080325101025853061984036969715220765 (0xAF59A343F97565AFB85A6BD638AE411D)
Complete name                            : D:\อัพหนัง\Night.of.the.Living.Dead.1990.1080p.BrRip.DTS.x264_hdfile4you.clubhd4you.net.mkv
Format                                   : Matroska
Format version                           : Version 4 / Version 2
File size                                : 4.09 GiB
Duration                                 : 1h 28mn
Overall bit rate                         : 6 640 Kbps
Movie name                               : Night.of.the.Living.Dead.1990.1080p.BrRip.DTS.x264_hdfile4you.clubhd4you.net
Encoded date                             : UTC 2010-02-22 21:41:31
Writing application                      : mkvmerge v5.9.0 ('On The Loose') built on Dec  9 2012 15:37:01
Writing library                          : libebml v1.3.0 + libmatroska v1.4.0
DURATION                                 : 01:22:35.280000000
NUMBER_OF_FRAMES                         : 748
NUMBER_OF_BYTES                          : 27775
_STATISTICS_WRITING_APP                  : mkvmerge v28.1.0 ('Morning Child') 64-bit
_STATISTICS_WRITING_DATE_UTC             : 2018-11-01 03:01:35
_STATISTICS_TAGS                         : BPS DURATION NUMBER_OF_FRAMES NUMBER_OF_BYTES

Video
ID                                       : 1
Format                                   : AVC
Format/Info                              : Advanced Video Codec
Format profile                           : [email protected]
Format settings, CABAC                   : Yes
Format settings, ReFrames                : 1 frame
Format settings, GOP                     : M=1, N=48
Muxing mode                              : Header stripping
Codec ID                                 : V_MPEG4/ISO/AVC
Duration                                 : 1h 28mn
Bit rate                                 : 4 679 Kbps
Width                                    : 1 920 pixels
Height                                   : 1 080 pixels
Display aspect ratio                     : 16:9
Frame rate mode                          : Constant
Frame rate                               : 23.976 fps
Color space                              : YUV
Chroma subsampling                       : 4:2:0
Bit depth                                : 8 bits
Scan type                                : Progressive
Bits/(Pixel*Frame)                       : 0.094
Stream size                              : 2.88 GiB (70%)
Title                                    : Night.of.the.Living.Dead.1990.1080p.BrRip.DTS.x264_hdfile4you.clubhd4you.net
Writing library                          : x264 core 155 r2901 7d0ff22
Language                                 : English
Default                                  : Yes
Forced                                   : No
Color primaries                          : BT.709
Transfer characteristics                 : BT.709
Matrix coefficients                      : BT.709
DURATION                                 : 01:28:15.744000000
NUMBER_OF_FRAMES                         : 165492
NUMBER_OF_BYTES                          : 211829760
_STATISTICS_WRITING_APP                  : mkvmerge v28.1.0 ('Morning Child') 64-bit
_STATISTICS_WRITING_DATE_UTC             : 2018-11-01 03:01:35
_STATISTICS_TAGS                         : BPS DURATION NUMBER_OF_FRAMES NUMBER_OF_BYTES

Audio #1
ID                                       : 2
Format                                   : AC-3
Format/Info                              : Audio Coding 3
Mode extension                           : CM (complete main)
Format settings, Endianness              : Big
Muxing mode                              : Header stripping
Codec ID                                 : A_AC3
Duration                                 : 1h 28mn
Bit rate mode                            : Constant
Bit rate                                 : 320 Kbps
Channel(s)                               : 6 channels
Channel positions                        : Front: L C R, Side: L R, LFE
Sampling rate                            : 48.0 KHz
Bit depth                                : 16 bits
Compression mode                         : Lossy
Stream size                              : 202 MiB (5%)
Title                                    : Thai Mater 5.1 By_hdfile4you.clubhd4you.net
Language                                 : Thai
Default                                  : Yes
Forced                                   : Yes

Audio #2
ID                                       : 3
Format                                   : DTS
Format/Info                              : Digital Theater Systems
Mode                                     : 16
Format settings, Endianness              : Big
Muxing mode                              : Header stripping
Codec ID                                 : A_DTS
Duration                                 : 1h 28mn
Bit rate mode                            : Constant
Bit rate                                 : 1 509 Kbps
Channel(s)                               : 6 channels
Channel positions                        : Front: L C R, Side: L R, LFE
Sampling rate                            : 48.0 KHz
Bit depth                                : 24 bits
Compression mode                         : Lossy
Stream size                              : 953 MiB (23%)
Title                                    : English DTS By_hdfile4you.clubhd4you.net
Language                                 : English
Default                                  : No
Forced                                   : No

Text #1
ID                                       : 4
Format                                   : PGS
Muxing mode                              : zlib
Codec ID                                 : S_HDMV/PGS
Codec ID/Info                            : The same subtitle format used on BDs/HD-DVDs
Title                                    : Thai PGS By_hdfile4you.clubhd4you.net
Language                                 : Thai
Default                                  : Yes
Forced                                   : Yes

Text #2
ID                                       : 5
Format                                   : UTF-8
Codec ID                                 : S_TEXT/UTF8
Codec ID/Info                            : UTF-8 Plain Text
Title                                    : English
Language                                 : English
Default                                  : No
Forced                                   : No

ดาวน์โหลด

ตรวจสอบสถานะ: ต้องซื้อหรือสิทธิไม่เพียงพอ

กลุ่มผู้ใช้ของคุณ: ผู้เยี่ยมชม

ชื่อไฟล์: Night of the Living Dead 
ดาวน์โหลด: 4  ขนาดไฟล์: 4 GB 
สิทธิ์ในการดาวน์โหลด: VIP  ขึ้นไป หรือ สมาชิก VIP   [ซื้อวีไอพี]   [ซื้อกลุ่ม VIP]




ลิ๊งค์ไฟล์เสียโหลดไม่ได้ติดโดยตรงได้ที่ >>คลิก<<
http://hdfile4you.clubhd4you.net/
ขออภัย! คุณไม่ได้รับสิทธิ์ในการดำเนินการในส่วนนี้ กรุณาเลือกอย่างใดอย่างหนึ่ง ลงชื่อเข้าใช้ | ลงทะเบียน

รายละเอียดเครดิต

ปิด

ประกาศจากทางเว็ป Hdfile4youก่อนหน้า /3 ต่อไป

cornfile.com

ประวัติการแบน|อุปกรณ์พกพา|ข้อความล้วน|โหลดหนัง หนังใหม่ เก่า เพลง โหลดฟรี ดูฟรี Hdfile4you

GMT+7, 2019-8-23 22:09 , Processed in 0.032970 second(s), 27 queries .

Powered by Discuz! X3.4 R20180101, Rev.59

© 2001-2017 Comsenz Inc.

ตอบกระทู้ ขึ้นไปด้านบน ไปที่หน้ารายการกระทู้