โหลดหนัง Hdfile4you

 ลืมรหัสผ่าน
 ลงทะเบียน
ค้นหา
ดู: 225|ตอบกลับ: 0

[ใหม่ ร้อนๆ!!!เสียงไทยโรงชัดสุด] Aladdin (2019) : อะลาดิน [1080p][พากย์ไทยโรง5.1+อังกฤษ5.1] [บรรยายอังกฤษ]

[คัดลอกลิงก์]

 
 ตำเเหน่ง: ผู้ดูแลระบบ

 มีนามว่า:admin 
สมาชิกคนที่:
เพศ: ชาย
กระทู้:3708 
โพสต์:4733
พลังน้ำใจ:100747 
เงิน:100916 
ความดี:100747 
เครดิต:105480
สิทธิ์อ่าน:200 
สมัครเมื่อ:2015-8-12 
ชมล่าสุด:2019-8-14 
ออนไลน์:2780 
สถานะใช้งาน:ออฟไลน์
เหรียญเกียรติยศ
ประดับยศนักโพสต์ยอดเยี่ยม ประดับยศนักแบ่งปันยอดเยี่ยม ประดับยศนักกิจกรรมยอดเยี่ยม ประดับยศนักเชิญชวนยอดเยี่ยม ประดับยศนักเขียนบทความยอดเยี่ยม ประดับยศนักออกแบบยอดเยี่ยม ประดับยศกิตติมศักดิ์ ประดับยศผู้ให้การสนับสนุน ประดับยศผู้ตั้งโพสต์ ประดับยศผู้ทรงคุณวุฒิ ประดับยศผู้สมัครสมาชิกใหม่ ประดับยศผู้ออนไลน์ต่อเนื่อง ประดับยศนักออนไลน์ยอดเยี่ยม


โพสต์ 2019-8-13 20:13:40 | ดู: 225| ตอบกลับ: 0
[ใหม่ ร้อนๆ!!!เสียงไทยโรงชัดสุด] Aladdin (2019) : อะลาดิน [1080p][พากย์ไทยโรง5.1+อังกฤษ5.1] [บรรยายอังกฤษ]

MV5BMjQ2.jpg

https://www.imdb.com/title/tt6139732/  7.3/1099,148 votes
Aladdin เรื่องราวของเด็กหนุ่มยากจนนามว่า อะลาดิน (มีนา มาซูด)  เขาถูกพ่อมดจาฟาร์ หลอกล่อให้เข้าไปเอาตะเกียงในถ้ำสิงห์กลางทะเลทราย ที่นั่นอะลาดินได้ถูตะเกียงปลดปล่อยวิญญาณของยักษ์จีนี่ที่มาพร้อมกับพร 3 ประการ อะลาดินขอพรข้อแรกให้เขาได้เป็นเจ้าชายอาลีเพื่อจัดขบวนขันหมากสุดอลังการไปสู่ขอเจ้าหญิงจัสมิน เขาไปพร้อมกับพรมวิเศษและพาเจ้าหญิงออกเหาะชมโลกในเพลง a whole new world ภาพยนตร์เต็มไปด้วยการผจญภัย การแย่งชิงบัลลังก์ของจาฟาร์ และความอลังการของโปรดักชั่น!
Format                      : Matroska
Format version              : Version 4
File size                   : 6.24 GiB
Duration                    : 2 h 7 min
Overall bit rate            : 6 983 kb/s
Movie name                  : Aladdin.2019.1080p.HDRip.THR5.1.x264

Video
ID                          : 1
Format                      : AVC
Format/Info                 : Advanced Video Codec
Format profile              : [email protected]
Format settings             : CABAC / 4 Ref Frames
Format settings, CABAC      : Yes
Format settings, Reference  : 4 frames
Codec ID                    : V_MPEG4/ISO/AVC
Duration                    : 2 h 7 min
Bit rate                    : 6 000 kb/s
Width                       : 1 920 pixels
Height                      : 1 080 pixels
Display aspect ratio        : 16:9
Frame rate mode             : Constant
Frame rate                  : 23.976 (24000/1001) FPS
Color space                 : YUV
Chroma subsampling          : 4:2:0
Bit depth                   : 8 bits
Scan type                   : Progressive
Bits/(Pixel*Frame)          : 0.121
Stream size                 : 5.32 GiB (85%)
Title                       : Aladdin.2019.1080p.HDRip.THR5.1.x264
Writing library             : x264 core 152 r2854 e9a5903
Encoding settings           : cabac=1 / ref=3 / deblock=1:0:0 / analyse=0x3:0x133 / me=hex / subme=7 / psy=1 / psy_rd=1.00:0.00 / mixed_ref=1 / me_range=16 / chroma_me=1 / trellis=1 / 8x8dct=1 / cqm=0 / deadzone=21,11 / fast_pskip=1 / chroma_qp_offset=-2 / threads=24 / lookahead_threads=4 / sliced_threads=0 / nr=0 / decimate=1 / interlaced=0 / bluray_compat=0 / constrained_intra=0 / bframes=3 / b_pyramid=2 / b_adapt=1 / b_bias=0 / direct=1 / weightb=1 / open_gop=0 / weightp=2 / keyint=250 / keyint_min=25 / scenecut=40 / intra_refresh=0 / rc_lookahead=40 / rc=abr / mbtree=1 / bitrate=6000 / ratetol=1.0 / qcomp=0.60 / qpmin=10 / qpmax=51 / qpstep=4 / ip_ratio=1.40 / aq=1:1.00
Language                    : English
Default                     : Yes
Forced                      : No

Audio #1
ID                          : 2
Format                      : AC-3
Format/Info                 : Audio Coding 3
Commercial name             : Dolby Digital
Codec ID                    : A_AC3
Duration                    : 2 h 7 min
Bit rate mode               : Constant
Bit rate                    : 640 kb/s
Channel(s)                  : 6 channels
Channel layout              : L R C LFE Ls Rs
Sampling rate               : 48.0 kHz
Frame rate                  : 31.250 FPS (1536 SPF)
Bit depth                   : 16 bits
Compression mode            : Lossy
Stream size                 : 586 MiB (9%)
Title                       : ThaiRong 5.1 @ 640 kb/s By Mr.Captain
Language                    : Thai
Service kind                : Complete Main
Default                     : Yes
Forced                      : Yes

Audio #2
ID                          : 3
Format                      : AC-3
Format/Info                 : Audio Coding 3
Commercial name             : Dolby Digital
Codec ID                    : A_AC3
Duration                    : 2 h 7 min
Bit rate mode               : Constant
Bit rate                    : 384 kb/s
Channel(s)                  : 6 channels
Channel layout              : L R C LFE Ls Rs
Sampling rate               : 48.0 kHz
Frame rate                  : 31.250 FPS (1536 SPF)
Bit depth                   : 16 bits
Compression mode            : Lossy
Stream size                 : 351 MiB (5%)
Title                       : English DD5.1 @ 384 kb/s
Language                    : English
Service kind                : Complete Main
Default                     : No
Forced                      : No

Text #1
ID                          : 4
Format                      : UTF-8
Codec ID                    : S_TEXT/UTF8
Codec ID/Info               : UTF-8 Plain Text
Duration                    : 1 h 58 min
Bit rate                    : 50 b/s
Count of elements           : 1682
Stream size                 : 43.4 KiB (0%)
Title                       : English
Language                    : English
Default                     : Yes
Forced                      : No

Text #2
ID                          : 5
Format                      : UTF-8
Codec ID                    : S_TEXT/UTF8
Codec ID/Info               : UTF-8 Plain Text
Duration                    : 2 h 7 min
Bit rate                    : 69 b/s
Count of elements           : 2433
Stream size                 : 65.1 KiB (0%)
Title                       : SDH
Language                    : English
Default                     : No
Forced                      : No
1 GB / PART
Download (ไม่อัพโหลด Google Drive แทน)

ลิ๊งเดียวจบ
*** ถ้าโหลดไม่ได้แสดงว่าติด Limit ต้องรอพรุ่งนี้เพราะคนโหลดเยอะนะครับ ***
ลิ๊งเดียวจบ
PASS : http://hdfile4you.clubhd4you.net/
*** ถ้าโหลดไม่ได้แสดงว่าติด Limit ต้องรอพรุ่งนี้เพราะคนโหลดเยอะนะครับ ***
SuperHQ 1080p
Download

ตั้งชื่อไฟล์ตามแบบนี้เท่านั้น
1.Aladdin.part1.rar
2.Aladdin.part2.rar
3.Aladdin.part3.rar
4.Aladdin.part4.rar

ปล.  -- Winrar ใส่ Recovery Record 5% ทุกไฟล์ครับ --


ลิ๊งค์ไฟล์เสียโหลดไม่ได้ติดโดยตรงได้ที่ >>คลิก<<
http://hdfile4you.clubhd4you.net/
ขออภัย! คุณไม่ได้รับสิทธิ์ในการดำเนินการในส่วนนี้ กรุณาเลือกอย่างใดอย่างหนึ่ง ลงชื่อเข้าใช้ | ลงทะเบียน

รายละเอียดเครดิต

ปิด

ประกาศจากทางเว็ป Hdfile4youก่อนหน้า /3 ต่อไป

cornfile.com

ประวัติการแบน|อุปกรณ์พกพา|ข้อความล้วน|โหลดหนัง หนังใหม่ เก่า เพลง โหลดฟรี ดูฟรี Hdfile4you

GMT+7, 2019-8-23 22:59 , Processed in 1.005673 second(s), 28 queries .

Powered by Discuz! X3.4 R20180101, Rev.59

© 2001-2017 Comsenz Inc.

ตอบกระทู้ ขึ้นไปด้านบน ไปที่หน้ารายการกระทู้